<?xml version="1.0" standalone="no"?> 
<!DOCTYPE svg PUBLIC "-//W3C//DTD SVG 1.1//EN" "http://www.w3.org/Graphics/SVG/1.1/DTD/svg11.dtd" >
<svg xmlns="http://www.w3.org/2000/svg">
<defs>
  <font id="nicons" horiz-adv-x="28">
    <font-face font-family="nicons"
      units-per-em="1001" ascent="1001"
      descent="0" />
    <missing-glyph horiz-adv-x="0" />
    <glyph glyph-name="age-gate"
      unicode="&#xE001;"
      horiz-adv-x="1001" d=" M804.375 829.65025L842.27 867.54525A17.875 17.875 0 0 0 867.5809999999999 842.30575L829.6859999999999 804.375L867.5809999999999 766.48A17.875 17.875 0 0 0 842.3057499999999 741.169L804.375 779.064L766.48 741.169A17.875 17.875 0 0 0 741.1690000000001 766.44425L779.0640000000001 804.375L741.1690000000001 842.27A17.875 17.875 0 0 0 766.4442500000001 867.5809999999999L804.3750000000001 829.6859999999999zM644.4652500000001 786.5H107.25A35.75 35.75 0 0 1 71.5 750.75V107.25A35.75 35.75 0 0 1 107.25 71.5H750.75A35.75 35.75 0 0 1 786.5 107.25V644.46525A160.9465 160.9465 0 0 0 644.4652500000001 786.5zM822.25 644.46525V107.25A71.5 71.5 0 0 0 750.75 35.75H107.25A71.5 71.5 0 0 0 35.75 107.25V750.75A71.5 71.5 0 0 0 107.25 822.25H644.4652500000001A160.875 160.875 0 1 0 822.25 644.46525zM436.15 411.125C410.08825 427.427 393.25 453.3815 393.25 482.625C393.25 531.96 441.26225 572 500.5 572S607.75 531.96 607.75 482.625C607.75 453.3815 590.91175 427.427 564.85 411.125C590.91175 394.823 607.75 368.8685000000001 607.75 339.625C607.75 290.2900000000001 559.73775 250.25 500.5 250.25S393.25 290.2900000000001 393.25 339.625C393.25 368.8685000000001 410.08825 394.823 436.15 411.125zM303.875 572A17.875 17.875 0 0 0 321.75 554.125V268.125A17.875 17.875 0 1 0 286 268.125V554.125A17.875 17.875 0 0 0 303.875 572zM500.5 429C541.255 429 572 454.597 572 482.625S541.255 536.25 500.5 536.25C459.745 536.25 429 510.653 429 482.625S459.745 429 500.5 429zM500.5 286C541.255 286 572 311.5970000000001 572 339.625S541.255 393.25 500.5 393.25C459.745 393.25 429 367.6529999999999 429 339.625S459.745 286 500.5 286zM804.375 679.25A125.12500000000003 125.12500000000003 0 1 1 804.375 929.5A125.12500000000003 125.12500000000003 0 0 1 804.375 679.25z" />
    <glyph glyph-name="angle-left-thick"
      unicode="&#xE002;"
      horiz-adv-x="1001" d=" M412.412 500.5L742.456 170.456A89.375 89.375 0 0 0 616.044 44.044L222.794 437.294A89.375 89.375 0 0 0 222.794 563.7059999999999L616.044 956.956A89.375 89.375 0 0 0 742.456 830.544L412.412 500.5z" />
    <glyph glyph-name="angle-left"
      unicode="&#xE003;"
      horiz-adv-x="1001" d=" M740.27525 904.22475L336.5505 500.5L740.27525 96.77525A35.75 35.75 0 0 0 689.72475 46.22475L260.72475 475.22475A35.75 35.75 0 0 0 260.72475 525.7752499999999L689.72475 954.77525A35.75 35.75 0 0 0 740.27525 904.22475z" />
    <glyph glyph-name="angle-right-thick"
      unicode="&#xE004;"
      horiz-adv-x="1001" d=" M258.544 830.544A89.375 89.375 0 1 0 384.956 956.956L778.206 563.706A89.375 89.375 0 0 0 778.206 437.294L384.956 44.044A89.375 89.375 0 0 0 258.5440000000001 170.456L588.588 500.5L258.544 830.544z" />
    <glyph glyph-name="angle-right"
      unicode="&#xE005;"
      horiz-adv-x="1001" d=" M260.7247500000001 904.22475A35.75 35.75 0 0 0 311.2752500000001 954.77525L740.27525 525.77525A35.75 35.75 0 0 0 740.27525 475.2247500000001L311.2752500000001 46.22475A35.75 35.75 0 1 0 260.7247500000001 96.77525L664.4495 500.5L260.7247500000001 904.22475z" />
    <glyph glyph-name="arrow-left-thick"
      unicode="&#xE006;"
      horiz-adv-x="1001" d=" M244.101 429L515.3005 157.8005000000001A71.5 71.5 0 0 0 414.1995000000001 56.6995000000001L20.9495000000001 449.9495000000001A71.5 71.5 0 0 0 20.9495000000001 551.0505L414.1995000000001 944.3005A71.5 71.5 0 0 0 515.3005 843.1995000000001L244.101 572H893.75A71.5 71.5 0 1 0 893.75 429H244.101z" />
    <glyph glyph-name="arrow-left"
      unicode="&#xE007;"
      horiz-adv-x="1001" d=" M157.8005 464.75L490.02525 132.52525A35.75 35.75 0 0 0 439.47475 81.97475L46.22475 475.22475A35.75 35.75 0 0 0 46.22475 525.7752499999999L439.47475 919.02525A35.75 35.75 0 0 0 490.02525 868.47475L157.8005 536.25H946.374A35.75 35.75 0 0 0 946.374 464.75H157.8005z" />
    <glyph glyph-name="arrow-right-thick"
      unicode="&#xE008;"
      horiz-adv-x="1001" d=" M756.899 429L485.6995 157.8005000000001A71.5 71.5 0 0 1 586.8005 56.6995000000001L980.0505 449.9495000000001A71.5 71.5 0 0 1 980.0505 551.0505L586.8005 944.3005A71.5 71.5 0 0 1 485.6995000000001 843.1995000000001L756.899 572H107.25A71.5 71.5 0 1 1 107.25 429H756.899z" />
    <glyph glyph-name="arrow-right"
      unicode="&#xE009;"
      horiz-adv-x="1001" d=" M843.1995 464.75L510.97475 132.52525A35.75 35.75 0 0 1 561.5252499999999 81.97475L954.77525 475.22475A35.75 35.75 0 0 1 954.77525 525.7752499999999L561.52525 919.02525A35.75 35.75 0 0 1 510.97475 868.47475L843.1995 536.25H54.626A35.75 35.75 0 0 1 54.626 464.75H843.1995z" />
    <glyph glyph-name="audio"
      unicode="&#xE00A;"
      horiz-adv-x="1001" d=" M107.25 858H893.75A71.5 71.5 0 0 0 965.25 786.5V250.25A71.5 71.5 0 0 0 893.75 178.75H107.25A71.5 71.5 0 0 0 35.75 250.25V786.5A71.5 71.5 0 0 0 107.25 858zM107.25 822.25A35.75 35.75 0 0 1 71.5 786.5V250.25A35.75 35.75 0 0 1 107.25 214.5H893.75A35.75 35.75 0 0 1 929.5 250.25V786.5A35.75 35.75 0 0 1 893.75 822.25H107.25zM709.137 361.6827500000001A17.875 17.875 0 0 0 682.14575 385.13475A185.57825 185.57825 0 0 1 727.76275 507.2925A185.614 185.614 0 0 1 681.43075 630.30825A17.875 17.875 0 0 0 708.24325 653.9032500000001A221.32825 221.32825 0 0 0 763.51275 507.32825A221.32825 221.32825 0 0 0 709.137 361.6827500000001zM621.4780000000001 405.7625000000001A17.875 17.875 0 0 0 594.594 429.3575000000001C613.3985 450.8075 623.9090000000001 478.192 623.9090000000001 507.2925C623.9090000000001 535.5707500000001 614.00625 562.2760000000001 596.167 583.44A17.875 17.875 0 0 0 623.5157500000001 606.463A153.51049999999995 153.51049999999995 0 0 0 659.6590000000001 507.2925C659.6590000000001 469.43325 645.931 433.6475000000001 621.4780000000001 405.7625000000001zM353.639 434.5770000000001H321.75A53.625 53.625 0 0 0 268.125 488.2020000000001V535.8567500000001A53.625 53.625 0 0 0 321.75 589.4817500000001H353.639L429.03575 656.8347500000001A53.625 53.625 0 0 0 518.375 616.86625V407.2282500000001A53.625 53.625 0 0 0 429 367.2240000000001L353.639 434.5770000000001zM321.75 553.73175A17.875 17.875 0 0 1 303.875 535.85675V488.202A17.875 17.875 0 0 1 321.75 470.327H367.2955000000001L452.8452500000001 393.8935A17.875 17.875 0 0 1 482.6250000000001 407.2282500000001V616.86625A17.875 17.875 0 0 1 452.8452500000001 630.16525L367.2955000000001 553.7317500000001H321.75z" />
    <glyph glyph-name="block"
      unicode="&#xE00B;"
      horiz-adv-x="1001" d=" M107.25 822.25H893.75A35.75 35.75 0 0 0 929.5 786.5V572A35.75 35.75 0 0 0 893.75 536.25H107.25A35.75 35.75 0 0 0 71.5 572V786.5A35.75 35.75 0 0 0 107.25 822.25zM107.25 464.75H893.75A35.75 35.75 0 0 0 929.5 429V214.5A35.75 35.75 0 0 0 893.75 178.75H107.25A35.75 35.75 0 0 0 71.5 214.5V429A35.75 35.75 0 0 0 107.25 464.75z" />
    <glyph glyph-name="bottom-bottom"
      unicode="&#xE00C;"
      horiz-adv-x="1001" d=" M786.5 35.75H893.75A71.5 71.5 0 0 1 965.25 107.25V893.75A71.5 71.5 0 0 1 893.75 965.25H107.25A71.5 71.5 0 0 1 35.75 893.75V107.25A71.5 71.5 0 0 1 107.25 35.75H214.5V500.5A107.25 107.25 0 0 0 321.75 607.75H679.25A107.25 107.25 0 0 0 786.5 500.5V35.75zM750.75 35.75V500.5A71.5 71.5 0 0 1 679.25 572H321.75A71.5 71.5 0 0 1 250.25 500.5V35.75H750.75zM107.25 1001H893.75A107.25 107.25 0 0 0 1001 893.75V107.25A107.25 107.25 0 0 0 893.75 0H107.25A107.25 107.25 0 0 0 0 107.25V893.75A107.25 107.25 0 0 0 107.25 1001zM500.5 173.9952500000001V335.2277500000002A17.875 17.875 0 1 0 536.25 335.2277500000002V173.9952500000002L569.31875 207.0282500000002A16.731 16.731 0 1 0 592.9495000000001 183.3975L518.375 108.823L443.8005 183.3974999999999A16.731 16.731 0 1 0 467.467 207.02825L500.5 173.9952500000001z" />
    <glyph glyph-name="bottom-top"
      unicode="&#xE00D;"
      horiz-adv-x="1001" d=" M214.5 607.75H893.75A71.5 71.5 0 0 1 965.25 679.25V965.25H35.75V679.25A71.5 71.5 0 0 1 107.25 607.75H214.5zM786.5 572V107.25A107.25 107.25 0 0 0 679.25 0H321.75A107.25 107.25 0 0 0 214.5 107.25V572H107.25A107.25 107.25 0 0 0 0 679.25V1001H1001V679.25A107.25 107.25 0 0 0 893.75 572H786.5zM250.25 572V107.25A71.5 71.5 0 0 1 321.75 35.75H679.25A71.5 71.5 0 0 1 750.75 107.25V572H250.25zM497.53275 442.26325L464.4639999999999 409.1945000000001A16.731 16.731 0 1 0 440.83325 432.8610000000001L515.40775 507.4355000000001L589.98225 432.8610000000001A16.731 16.731 0 0 0 566.31575 409.1945000000001L533.28275 442.2632500000001V281.0307500000002A17.875 17.875 0 0 0 497.53275 281.0307500000002V442.2632500000002z" />
    <glyph glyph-name="breadcrumbs"
      unicode="&#xE00E;"
      horiz-adv-x="1001" d=" M89.375 250.25A53.625 53.625 0 1 1 89.375 357.5A53.625 53.625 0 0 1 89.375 250.25zM911.625 607.75A53.625 53.625 0 1 1 911.625 715A53.625 53.625 0 0 1 911.625 607.75zM752.5375 107.25H160.875A89.375 89.375 0 0 0 71.5 196.625V216.2875A89.375 89.375 0 0 0 71.5 391.4625000000001V412.0545000000001A89.375 89.375 0 0 0 160.875 501.4295000000001H430.96625A89.375 89.375 0 0 0 605.78375 501.4295000000001H840.125A53.625 53.625 0 0 1 893.75 555.0545000000002V573.7875000000001A89.375 89.375 0 0 0 893.75 748.9625000000002V768.625A53.625 53.625 0 0 1 840.125 822.25H248.4625A89.375 89.375 0 1 0 248.4625 858H840.125A89.375 89.375 0 0 0 929.5 768.625V748.9625A89.375 89.375 0 0 0 929.5 573.7875V555.0545A89.375 89.375 0 0 0 840.125 465.6795H606.1412499999999A89.375 89.375 0 0 0 430.60875 465.6795H160.875A53.625 53.625 0 0 1 107.25 412.0545V391.4625A89.375 89.375 0 0 0 107.25 216.2874999999999V196.6249999999999A53.625 53.625 0 0 1 160.875 143H752.5375A89.375 89.375 0 1 0 752.5375 107.25zM160.875 786.5A53.625 53.625 0 1 1 160.875 893.75A53.625 53.625 0 0 1 160.875 786.5zM518.375 429A53.625 53.625 0 1 1 518.375 536.25A53.625 53.625 0 0 1 518.375 429zM840.125 71.5A53.625 53.625 0 1 1 840.125 178.75A53.625 53.625 0 0 1 840.125 71.5z" />
    <glyph glyph-name="button-group"
      unicode="&#xE00F;"
      horiz-adv-x="1001" d=" M135.135 715A99.42075000000001 99.42075000000001 0 0 1 35.75 615.615V421.135C35.75 366.08 80.08 321.75 135.24225 321.75H368.8685A17.875 17.875 0 1 0 368.8685 286H135.24225A134.95624999999998 134.95624999999998 0 0 0 0 421.135V615.615A135.17075 135.17075 0 0 0 135.135 750.75H446.875A17.875 17.875 0 0 0 464.75 732.875V615.8652500000001A17.875 17.875 0 0 0 429 615.8652500000001V715H135.135zM572 576.862A17.875 17.875 0 0 0 536.25 576.862V732.875A17.875 17.875 0 0 0 554.125 750.75H875.98225C945.40875 750.75 1001 689.9392499999999 1001 615.615V421.135C1001 346.918 945.48025 286 876.2325 286H840.125A17.875 17.875 0 1 0 840.125 321.75H876.2325000000001C924.95975 321.75 965.25 365.97275 965.25 421.135V615.615C965.25 670.8845 924.924 715 875.98225 715H572V576.862zM758.0787499999999 225.18925H702.0585L759.4014999999999 130.73775C764.6567499999999 121.9789999999999 766.4085 112.6840000000001 764.7282499999999 102.56675L763.6914999999999 98.8844999999999C760.0092499999998 89.6252499999999 754.6109999999999 82.2249999999999 746.3169999999999 77.2199999999999L653.3669999999998 23.2732499999998A36.8225 36.8225 0 0 0 633.3827499999999 17.8749999999999A27.992249999999995 27.992249999999995 0 0 0 621.5137499999998 19.8054999999998A35.14224999999999 35.14224999999999 0 0 0 598.8482499999998 40.0757499999999L539.7892499999998 157.1569999999998L494.3867499999998 111.8259999999998C482.0887499999998 101.4584999999997 466.0727499999998 98.3482499999998 452.8094999999998 104.0324999999998C438.7239999999998 109.2877499999997 428.9999999999999 123.8379999999998 428.9999999999999 139.4249999999997V513.1197500000001C428.9999999999999 528.7425 437.5799999999998 543.1855 452.5949999999998 548.7982499999999C463.5702499999998 555.3405 480.4799999999998 552.6234999999999 492.4204999999998 542.6492499999999L783.6399999999998 293.4717500000001C795.6519999999997 281.567 800.2279999999997 265.30075 794.7224999999997 250.71475C789.1097499999997 235.664 774.3807499999998 225.1534999999999 758.0787499999998 225.1534999999999zM759.4014999999999 267.3027500000001L469.2902499999999 515.4077500000001C468.2892499999999 516.23 467.3597499999999 516.373 467.7172499999999 516.5875000000001C465.1074999999998 515.3720000000001 464.7499999999999 514.7642500000001 464.7499999999999 513.1555000000001V139.425C464.7499999999999 138.53125 465.4649999999999 137.4945 466.1084999999999 137.24425C467.1809999999999 136.8152499999999 469.1114999999999 137.17275 470.3627499999999 138.24525L531.9957499999999 199.914L549.4775 217.39575S631.7025 54.16125 630.9159999999998 54.3042499999999L635.3847499999998 52.7669999999999C633.8117499999998 53.5534999999999 633.0609999999998 53.6607499999999 633.3827499999999 53.6607499999999C634.1692499999998 53.6607499999999 634.6697499999999 53.8037499999999 634.4552499999999 53.6607499999999L728.1202499999999 108.0722499999998A6.399250000000001 6.399250000000001 0 0 1 729.5859999999999 110.1814999999999A4.683250000000001 4.683250000000001 0 0 1 728.76375 112.3264999999999L655.0115 233.8049999999999L638.5664999999999 260.9749999999999H758.0787499999999C759.2942499999999 260.9749999999999 760.79575 262.0474999999999 761.29625 263.3344999999998C761.5107499999999 263.9422499999999 761.0102499999999 265.7297499999999 759.4014999999999 267.3384999999999z" />
    <glyph glyph-name="checkbox"
      unicode="&#xE010;"
      horiz-adv-x="1001" d=" M380.91625 335.049L840.6255 794.7225000000001A93.95100000000001 93.95100000000001 0 1 0 973.4725 661.8755L447.3755 135.74275A93.95100000000001 93.95100000000001 0 0 0 314.49275 135.74275L27.5275 422.7080000000001A93.95100000000001 93.95100000000001 0 1 0 160.3745 555.5907500000001L380.952 335.0132500000001z" />
    <glyph glyph-name="circle-progress"
      unicode="&#xE011;"
      horiz-adv-x="1001" d=" M500.5 35.75V0C224.081 0 0 224.081 0 500.5S224.081 1001 500.5 1001S1001 776.919 1001 500.5H965.25C965.25 757.185 757.185 965.25 500.5 965.25S35.75 757.185 35.75 500.5S243.815 35.75 500.5 35.75zM393.25 518.375A89.375 89.375 0 1 0 393.25 697.125A89.375 89.375 0 0 0 393.25 518.375zM393.25 554.125A53.625 53.625 0 1 1 393.25 661.375A53.625 53.625 0 0 1 393.25 554.125zM607.75 303.875A89.375 89.375 0 1 0 607.75 482.625A89.375 89.375 0 0 0 607.75 303.875zM607.75 339.625A53.625 53.625 0 1 1 607.75 446.875A53.625 53.625 0 0 1 607.75 339.625zM370.1555 344.8445000000001A17.875 17.875 0 0 0 344.8445 370.1555L630.8445 656.1555A17.875 17.875 0 0 0 656.1555 630.8444999999999L370.1555 344.8445000000001z" />
    <glyph glyph-name="desktop"
      unicode="&#xE012;"
      horiz-adv-x="1001" d=" M35.75 893.49975V286.25025C35.75 246.389 67.5675 214.5 107.107 214.5H893.8929999999999A71.75025 71.75025 0 0 1 965.25 286.2502500000001V893.49975C965.25 933.361 933.4325 965.25 893.893 965.25H107.107A71.75025 71.75025 0 0 1 35.75 893.49975zM0 893.49975C0 952.84475 48.2625 1001 107.107 1001H893.8929999999999A107.07125000000002 107.07125000000002 0 0 0 1001 893.49975V286.25025C1001 226.90525 952.7375 178.75 893.893 178.75H107.107A107.07125000000002 107.07125000000002 0 0 0 0 286.2502500000001V893.49975z M893.75 393.25V893.75H107.25V393.25H893.75zM71.5 893.75A35.75 35.75 0 0 0 107.25 929.5H893.75C913.484 929.5 929.5 913.59125 929.5 893.75V357.5H71.5V893.75zM384.813 130.30875C377.55575 93.8795 366.1515 65.3152499999999 347.02525 46.22475L341.37675 41.6129999999999C339.053 40.07575 336.72925 38.3955 334.62 36.6794999999999C340.9835 36.1075 348.634 35.7499999999999 357.5 35.7499999999999H679.25C688.116 35.7499999999999 695.7665 36.1075 702.13 36.6794999999999A92.69975 92.69975 0 0 1 695.3375 41.6129999999999L689.72475 46.22475C670.5985 65.3152499999999 659.19425 93.8794999999999 651.937 130.30875A435.61375000000004 435.61375000000004 0 0 0 645.2875 178.75H391.4625000000001C390.0325000000001 162.2692500000001 387.8875000000001 145.9315 384.8130000000001 130.30875zM357.5 214.5H679.25C679.393 214.5 679.25 107.25 715 71.5C745.20875 51.6229999999999 793.5785 0 679.25 0H357.5C243.1715 0 291.54125 51.6229999999999 321.75 71.5C357.5 107.25 357.3570000000001 214.5 357.5 214.5z" />
    <glyph glyph-name="divider-text"
      unicode="&#xE013;"
      horiz-adv-x="1001" d=" M576.46875 715L493.60025 838.6949999999999L410.696 715H576.46875zM750.75 464.75V429C750.75 409.266 734.6625 393.25 714.74975 393.25H286.25025A35.75 35.75 0 0 0 250.25 429V464.75H17.875A18.05375 18.05375 0 0 0 0 482.625C0 492.492 8.2225 500.5 17.875 500.5H250.25V536.25C250.25 555.9839999999999 266.3375000000001 572 286.25025 572H714.7497500000001A35.75 35.75 0 0 0 750.75 536.25V500.5H983.125C992.992 500.5 1001 492.206 1001 482.625C1001 472.758 992.7775 464.75 983.125 464.75H750.75zM362.7195000000001 707.5640000000001L474.617 874.588C485.1275 890.2465 502.10875 890.2465 512.5835 874.588L624.481 707.5640000000001C634.95575 691.9055 629.343 679.25 611.9685 679.25H375.232C358.17925 679.25 352.209 691.9412500000001 362.7195 707.5640000000001zM624.5525 257.6859999999999L512.655 90.6619999999999C502.1445 75.0034999999999 485.1275 75.0034999999999 474.6885 90.6619999999999L362.791 257.6859999999999C352.2805 273.3445 357.9290000000001 286 375.3035 286H612.04C629.0927499999999 286 635.02725 273.3087500000001 624.5525 257.6859999999999zM410.7675 250.25L493.67175 126.555L576.54025 250.25H410.80325zM286 429H714.7497500000001C715 429 715 536.25 715 536.25H286.25025C286 536.25 286 429 286 429z" />
    <glyph glyph-name="expand"
      unicode="&#xE014;"
      horiz-adv-x="1001" d=" M71.5 929.5H357.5L71.5 643.5V929.5zM929.5 929.5V643.5L643.5 929.5H929.5zM929.5 71.5H643.5L929.5 357.5V71.5zM71.5 71.5V357.5L357.5 71.5H71.5z" />
    <glyph glyph-name="extras"
      unicode="&#xE015;"
      horiz-adv-x="1001" d=" M0 146.61075L249.14175 395.7525000000001H0V613.7202500000001H240.70475L0 854.46075V1005.29L140.4975 1003.288L498.60525 645.216L856.6772500000001 1003.288L1001 998.426V858.25025L756.47 613.7202500000001H1001V395.7525000000001H748.06875L1001 142.8212500000001V-4.2184999999999L856.6772500000001 -2.2164999999999L498.60525 355.8555L140.4975 -2.288L0 -4.25425V146.61075z" />
    <glyph glyph-name="filter"
      unicode="&#xE016;"
      horiz-adv-x="1001" d=" M100.6005 607.75A71.5 71.5 0 1 0 100.6005 750.75H893.75A71.5 71.5 0 1 0 893.75 607.75H100.6005zM243.6005 393.25A71.5 71.5 0 1 0 243.6005 536.25H760.9029999999999A71.5 71.5 0 1 0 760.9029999999999 393.25H243.56475zM422.3505 178.75A71.5 71.5 0 0 0 422.3505 321.75H560.30975A71.5 71.5 0 1 0 560.30975 178.75H422.3505z" />
    <glyph glyph-name="gear"
      unicode="&#xE017;"
      horiz-adv-x="1001" d=" M793.54275 640.46125L780.637 667.41675L855.7835 742.5632499999999C855.8907499999999 742.6705 818.246 780.351 742.8849999999999 855.60475C742.8135 855.712 717.6455 830.7227499999999 667.4525 780.637L640.46125 793.507A322.322 322.322 0 0 1 608.7152499999999 806.69875L580.5442499999999 816.63725V922.88625C580.5442499999999 923.02925 527.2767499999999 923.065 420.81325 922.9935C420.6702499999999 922.9935 420.563 887.56525 420.4557499999999 816.63725L392.2847499999999 806.69875C381.4524999999999 802.8734999999999 370.8704999999999 798.4762499999999 360.5387499999999 793.54275L333.5832499999999 780.637L258.4367499999999 855.7835C258.3294999999999 855.89075 220.6489999999999 818.246 145.3952499999999 742.885C145.2879999999999 742.8135 170.2772499999999 717.6455 220.3629999999999 667.4525L207.4929999999999 640.46125A322.322 322.322 0 0 1 194.3012499999999 608.71525L184.36275 580.5442499999999H78.11375C77.97075 580.5442499999999 77.935 527.27675 78.0065 420.8132500000001C78.0065 420.67025 113.43475 420.563 184.36275 420.45575L194.30125 392.2847499999999C198.1265 381.4525 202.52375 370.8705 207.45725 360.53875L220.363 333.5832499999999L145.2165000000001 258.4367499999999C145.10925 258.3294999999999 182.7540000000001 220.6489999999999 258.115 145.3952499999999C258.1865 145.2879999999999 283.3545000000001 170.27725 333.5475 220.363L360.5387500000001 207.493C370.90625 202.488 381.4525000000001 198.1265 392.2847500000001 194.30125L420.45575 184.36275V78.11375C420.45575 77.97075 473.7232500000001 77.935 580.18675 78.0065C580.32975 78.0065 580.437 113.4347499999999 580.54425 184.36275L608.7152500000001 194.30125C619.5475 198.1265 630.1295 202.52375 640.4612500000001 207.4572499999999L667.4167500000001 220.363L742.5632500000002 145.2164999999999C742.6705000000002 145.1092499999999 780.3510000000001 182.7539999999999 855.6047500000001 258.115C855.7120000000001 258.1864999999999 830.72275 283.3544999999999 780.6370000000001 333.5474999999999L793.5070000000001 360.53875C798.5120000000001 370.9062499999999 802.8735 381.4525 806.69875 392.2847499999999L816.63725 420.45575H922.88625C923.02925 420.45575 923.065 473.72325 922.9935 580.18675C922.9935 580.3297499999999 887.5652500000001 580.4369999999999 816.63725 580.5442499999999L806.69875 608.71525A322.322 322.322 0 0 1 793.5427500000001 640.46125zM846.5242499999999 622.80075H922.88625A42.5425 42.5425 0 0 0 965.25 580.2225000000001V420.849C965.25 397.3254999999999 946.66 378.2349999999999 922.88625 378.2349999999999H846.56C842.2342500000001 365.9727499999999 837.265 353.9964999999999 831.688 342.3419999999999L885.6705000000001 288.3594999999998A42.5425 42.5425 0 0 0 885.5275 228.2637499999999L772.80775 115.5439999999999A42.22075 42.22075 0 0 0 712.74775 115.3652499999998L658.7295 169.3834999999999C647.075 163.8064999999999 635.1345000000001 158.8372499999998 622.8365 154.5114999999999V78.1494999999999A42.5425 42.5425 0 0 0 580.2225 35.75H420.849C397.3255000000001 35.75 378.235 54.34 378.235 78.11375V154.4400000000001C365.97275 158.7657499999999 353.9965 163.735 342.3420000000001 169.312L288.3595000000001 115.3295A42.5425 42.5425 0 0 0 228.26375 115.4725L115.4725 228.2280000000001A42.22075 42.22075 0 0 0 115.29375 288.288L169.312 342.30625C163.735 353.96075 158.76575 365.90125 154.44 378.19925H78.11375A42.5425 42.5425 0 0 0 35.75 420.7775000000001V580.1510000000001C35.75 603.6745 54.34 622.765 78.11375 622.765H154.44C158.76575 635.02725 163.735 647.0035 169.312 658.6579999999999L115.3295 712.6405A42.5425 42.5425 0 0 0 115.4725 772.7362499999999L228.228 885.5275A42.22075 42.22075 0 0 0 288.288 885.70625L342.30625 831.688C353.96075 837.265 365.90125 842.23425 378.19925 846.5600000000001V922.88625A42.5425 42.5425 0 0 0 420.7775 965.25H580.1510000000001C603.6745000000001 965.25 622.7650000000001 946.66 622.7650000000001 922.88625V846.56C635.0272500000001 842.23425 647.0035000000001 837.265 658.6580000000001 831.688L712.6405000000002 885.6705A42.5425 42.5425 0 0 0 772.7362500000002 885.5274999999999L885.4560000000001 772.8077499999999C902.0797500000002 756.184 902.4372500000002 729.55025 885.6347500000002 712.74775L831.6165000000001 658.7295C837.1935000000001 647.075 842.1627500000002 635.1345 846.4885000000002 622.8365zM500.5 371.514A128.986 128.986 0 1 1 500.5 629.4860000000001A128.986 128.986 0 0 1 500.5 371.514zM500.5 329.29325A171.24249999999998 171.24249999999998 0 1 0 500.5 671.7067499999999A171.24249999999998 171.24249999999998 0 0 0 500.5 329.29325z" />
    <glyph glyph-name="heading-extended"
      unicode="&#xE018;"
      horiz-adv-x="1001" d=" M220.5775 500.5C235.235 542.14875 274.81025 572 321.75 572H715C774.23775 572 822.25 523.84475 822.25 464.75C822.25 405.51225 774.5595 357.5 715 357.5H321.75C262.51225 357.5 214.5 405.65525 214.5 464.75H160.83925A17.767750000000003 17.767750000000003 0 0 1 143 446.875V339.625C143 329.7937500000001 151.0795 321.75 161.12525 321.75H464.49975C494.065 321.75 518.375 297.54725 518.375 268.3395000000001V212.212A71.57149999999999 71.57149999999999 0 0 0 572 143.0715V71.4284999999999A71.2855 71.2855 0 0 0 500.5 0C460.99625 0 429 32.1034999999999 429 71.4285V143.0715000000001C429 176.3905000000001 451.6297499999999 204.3827500000001 482.625 212.2835000000001V268.3395000000002A18.196749999999998 18.196749999999998 0 0 1 464.49975 286.0000000000001H161.12525C131.417 286 107.25 309.9525000000001 107.25 339.625V446.875C107.25 476.58325 131.2025 500.5 160.83925 500.5H220.54175zM965.25 965.25H71.5V836.58575C89.76825 851.708 115.00775 859.96625 143 859.96625H464.75V572H429V824.21625H143C107.50025 824.21625 77.363 806.3054999999999 77.363 771.16325C77.363 760.1165 68.211 750.07075 57.057 750.07075A22.022000000000006 22.022000000000006 0 0 0 35.75 771.1990000000001V980.98C35.75 991.95525 44.86625 1001 57.057 1001H980.694C991.88375 1001 1001 991.95525 1001 980.94425V771.1275C1001 760.08075 991.88375 750.0350000000001 980.694 750.0350000000001A22.022000000000006 22.022000000000006 0 0 0 959.387 771.1275C959.387 806.2697499999999 929.24975 824.1805 893.75 824.1805H607.75V572H572V859.96625H893.75C921.74225 859.96625 946.98175 851.708 965.25 836.58575V965.25zM250.25 464.75C250.25 425.31775 282.31775 393.25 321.75 393.25H715C754.6825 393.25 786.5 425.139 786.5 464.75C786.5 504.18225 754.4322500000001 536.25 715 536.25H321.75C282.0675 536.25 250.25 504.361 250.25 464.75zM464.75 143.0715000000001V71.4285C464.75 51.8017500000001 480.8375 35.75 500.5 35.75C520.41275 35.75 536.25 51.6229999999999 536.25 71.4285V143.0715000000001C536.25 162.69825 520.1625 178.7500000000001 500.5 178.7500000000001C480.58725 178.7500000000001 464.75 162.8770000000002 464.75 143.0715000000001z" />
    <glyph glyph-name="hide"
      unicode="&#xE019;"
      horiz-adv-x="1001" d=" M197.37575 712.60475A17.875 17.875 0 1 0 216.68075 682.539C124.30275 623.194 53.625 537.108 53.625 500.5C53.625 470.8275 104.64025 402.116 176.605 346.7035C269.01875 275.5609999999999 381.5955 232.375 500.5 232.375A500.5000000000001 500.5000000000001 0 0 1 651.6510000000001 255.9342499999999A17.875 17.875 0 1 0 662.41175 221.8287499999999A536.25 536.25 0 0 0 500.5 196.625C373.19425 196.625 253.11 242.63525 154.7975 318.3895C74.82475 379.951 17.875 456.6347499999999 17.875 500.5C17.875 552.51625 95.7385 647.32525 197.37575 712.60475zM826.1825 303.5890000000001A17.875 17.875 0 1 0 805.55475 332.761C887.2435 390.533 947.375 467.5385 947.375 500.5C947.375 530.1725 896.35975 598.884 824.395 654.2964999999999C731.98125 725.4390000000001 619.4045 768.625 500.5 768.625C451.2365 768.625 402.9382500000001 761.22475 356.17725 747.175A17.875 17.875 0 0 0 345.88125 781.4235C395.9312500000001 796.4385 447.69725 804.375 500.5 804.375C627.80575 804.375 747.8900000000001 758.3647500000001 846.2025000000001 682.6105C926.1752500000002 621.049 983.125 544.3652500000001 983.125 500.5C983.125 452.7737499999999 916.487 367.4027500000001 826.1825 303.5890000000001zM342.9855 533.3542500000001A17.875 17.875 0 1 0 378.0205 526.097A125.12500000000003 125.12500000000003 0 0 1 525.239 377.8060000000001A17.875 17.875 0 1 0 532.246 342.7710000000001A160.875 160.875 0 0 0 342.9855000000001 533.3542500000001zM661.375 500.5A17.875 17.875 0 1 0 625.625 500.5A125.12500000000003 125.12500000000003 0 0 1 500.5 625.625A17.875 17.875 0 1 0 500.5 661.375A160.875 160.875 0 0 0 661.375 500.5zM130.3445 845.3445A17.875 17.875 0 1 0 155.6555 870.6555L850.31375 175.9615A17.875 17.875 0 0 0 825.0385 150.68625L130.3445 845.3445z" />
    <glyph glyph-name="hotspots"
      unicode="&#xE01A;"
      horiz-adv-x="1001" d=" M542.828 472.00725A143.0715 143.0715 0 0 0 822.25 429C822.25 417.6315 819.2827500000001 403.6175 814.20625 387.8875000000001L965.25 206.7065V715.17875C965.25 734.6624999999999 949.12675 750.75 929.5 750.75V724.7955A35.67850000000001 35.67850000000001 0 0 0 893.75 689.0097499999999H750.75L679.25 607.75L607.75 689.0097499999999H464.75C445.016 689.0097499999999 429 704.9185 429 724.7597499999999V750.75H71.32125A35.535500000000006 35.535500000000006 0 0 1 35.75 715.17875V207.4572500000001L164.45 380.1297500000001A17.875 17.875 0 0 0 192.22775 381.2022500000002L319.14025 235.7355000000001L485.199 509.7592500000001A17.875 17.875 0 0 0 515.05025 510.9032500000001L542.828 472.0072500000001zM536.85775 419.562A17.9465 17.9465 0 0 0 534.28375 422.4219999999999L501.75125 468.039L337.0510000000001 196.3032499999999A17.875 17.875 0 0 0 308.2722500000001 193.80075L179.85825 340.9835000000001L50.08575 166.881A17.875 17.875 0 0 0 35.75 159.6594999999999V107.07125C35.75 87.5874999999999 51.766 71.4999999999999 71.17825 71.4999999999999H929.8575A35.67850000000001 35.67850000000001 0 0 1 965.28575 107.07125V160.875A17.839250000000003 17.839250000000003 0 0 0 951.55775 167.31L799.4415 349.8495000000001C758.9725 258.4725 679.25 143 679.25 143S546.79625 334.7630000000001 536.85775 419.562zM929.5 786.5C969.00375 786.5 1001 754.2535 1001 715.17875V107.07125C1001 67.67475 968.825 35.75 929.82175 35.75H71.1425C31.85325 35.75 0 67.9965000000001 0 107.0712500000001V715.17875C0 754.57525 31.889 786.5 71.32125 786.5H429V965.21425C429 984.984 445.0875 1001 465.00025 1001H893.4997500000001C913.4125 1001 929.5 985.09125 929.5 965.21425V786.5zM214.5 464.75A107.25 107.25 0 1 0 214.5 679.25A107.25 107.25 0 0 0 214.5 464.75zM214.5 500.5A71.5 71.5 0 1 1 214.5 643.5A71.5 71.5 0 0 1 214.5 500.5zM734.5910000000001 724.7597499999999H893.75V965.21425L465.00025 965.25C464.75 965.25 464.75 724.7955 464.75 724.7955L623.9089999999999 724.7597499999999L679.25 661.83975L734.5910000000001 724.7597499999999zM719.8262500000001 274.3097500000001C728.5135 289.3247500000001 736.62875 303.8392500000001 743.9575000000001 317.7460000000001C771.056 369.0830000000001 786.5 409.5162499999999 786.5 429A107.25 107.25 0 0 1 572 429C572 409.5162499999999 587.444 369.0830000000001 614.5425 317.746C621.907 303.8034999999999 629.9865 289.3247499999999 638.67375 274.3097499999999C651.6152500000001 252.00175 665.379 229.6222499999999 679.2500000000001 207.8862499999999C693.1210000000002 229.5864999999999 706.8847500000002 252.00175 719.8262500000002 274.3097499999999zM679.25 357.5A71.5 71.5 0 1 0 679.25 500.5A71.5 71.5 0 0 0 679.25 357.5zM679.25 393.25A35.75 35.75 0 1 1 679.25 464.75A35.75 35.75 0 0 1 679.25 393.25z" />
    <glyph glyph-name="image-comparison"
      unicode="&#xE01B;"
      horiz-adv-x="1001" d=" M500.5 736.2355L45.2595 449.62775A17.8035 17.8035 0 0 0 35.75 446.875V378.69975L222.794 497.7115A17.875 17.875 0 1 0 241.956 467.5385L45.331 342.4135000000001A17.8035 17.8035 0 0 0 35.75 339.625V271.44975L222.794 390.4615A17.875 17.875 0 1 0 241.956 360.2885L45.331 235.1635A17.8035 17.8035 0 0 0 35.75 232.375V178.5712500000001C35.75 174.1025000000001 36.608 169.7767500000001 38.14525 165.84425L329.901 354.60425A17.875 17.875 0 0 0 349.349 324.61L68.783 143.0715000000001A34.9635 34.9635 0 0 1 71.17825 143.0000000000001H196.625A17.875 17.875 0 0 0 204.776 158.0150000000002L500.5 349.349V736.2355zM536.25 768.3389999999999V339.911A17.875 17.875 0 0 0 536.25 339.37475V143H500.5V197.626L423.995 143H929.8575A35.67850000000001 35.67850000000001 0 0 1 965.28575 178.5712500000001V786.67875A35.71425 35.71425 0 0 1 929.82175 822.25H446.875A17.875 17.875 0 0 0 438.581 807.1635L45.331 556.9135A17.8035 17.8035 0 0 0 35.75 554.125V485.8425L500.5 778.492V822.25H536.25V768.9467500000001A17.875 17.875 0 0 0 536.25 768.3389999999999zM500.5 241.5627500000001V306.7707500000002L247.39 143H375.375A17.875 17.875 0 0 0 382.8825000000001 157.55025L500.5 241.5627500000001zM273.702 822.25L45.93875 664.55675A17.8035 17.8035 0 0 0 35.75 661.375V593.19975L395.7167500000001 822.25H273.702zM210.925 822.25H71.17825A35.67850000000001 35.67850000000001 0 0 1 35.75 786.67875V700.9860000000001L210.925 822.25zM267.9105 858H929.82175C969.1467500000002 858 1001 825.7535 1001 786.67875V178.57125C1001 139.17475 968.825 107.25 929.82175 107.25H71.1425C31.85325 107.25 0 139.4965000000001 0 178.5712500000001V786.67875C0 826.07525 32.175 858 71.17825 858H267.87475zM397.79025 568.9255C414.30675 579.7935 427.67725 572.5005 427.67725 553.1955V409.5162499999999C427.67725 389.9609999999999 414.3425000000001 382.8825 397.79025 393.7862499999999L294.723 461.7112499999999C278.24225 472.5434999999999 278.17075 490.1324999999999 294.723 501.0362499999999L397.79025 568.9612499999998zM329.86525 481.338L391.92725 440.47575V522.2359999999999L329.8295000000001 481.3379999999999zM637.3510000000001 568.9254999999999L739.4530000000002 501.0004999999999C755.8265000000001 490.1324999999999 755.7907500000002 472.5434999999999 739.4530000000002 461.6754999999999L637.3510000000001 393.7505C620.9775000000002 382.8825000000001 607.7857500000001 389.9609999999999 607.7857500000001 409.5162499999999V553.1954999999999C607.7857500000001 572.5005 621.0132500000002 579.7935 637.3510000000001 568.9254999999999zM643.5 521.8785V440.83325L704.4537499999999 481.3380000000001L643.5 521.8785z" />
    <glyph glyph-name="image-gallery"
      unicode="&#xE01C;"
      horiz-adv-x="1001" d=" M429 679.25H665.62925C693.37125 679.25 715 654.54675 715 625.5535V429H679.25V625.5535C679.25 635.778 672.49325 643.5 665.62925 643.5H429V500.3570000000001C429 480.6945000000001 412.6980000000001 464.7500000000001 393.4287500000001 464.7500000000001H107.07125A35.57125 35.57125 0 0 0 71.5 500.357V822.393C71.5 842.0554999999999 87.802 858 107.07125 858H393.42875C413.09125 858 429 842.09125 429 822.393V679.25zM107.25 500.5H393.4287500000001C393.25 500.5 393.25 822.25 393.25 822.25H107.07125C107.25 822.25 107.25 500.5 107.25 500.5zM893.75 500.357S893.75 822.25 893.6785 822.25C893.6785 822.25 607.75 822.107 607.75 822.25V679.25H572V822.25C572 841.9839999999999 588.302 858 607.8215 858H893.6784999999999A35.67850000000001 35.67850000000001 0 0 0 929.5 822.393V500.357C929.5 480.6944999999999 913.2337500000002 464.75 893.75 464.75H715V500.5S893.75 500.60725 893.75 500.357zM321.75 393.25H107.25L107.3215 178.75S393.25 178.893 393.25 178.75V286H429V178.75C429 159.016 412.6980000000001 143 393.1785 143H107.3215A35.893 35.893 0 0 0 71.5 178.64275V393.35725C71.5 413.0197500000001 87.4445 429 107.1785 429H321.75V393.25zM572 393.35725C572 413.0197500000001 588.302 429 607.5712500000001 429H893.92875A35.75 35.75 0 0 0 929.5000000000002 393.35725V178.64275C929.5000000000002 158.98025 913.198 143 893.92875 143H607.5712500000002A35.75 35.75 0 0 0 572.0000000000001 178.64275V393.35725zM607.75 178.64275C607.75 178.75 893.9287499999999 178.75 893.9287499999999 178.75C893.75 178.75 893.75 393.35725 893.75 393.35725C893.75 393.25 607.5712500000001 393.25 607.5712500000001 393.25C607.75 393.25 607.75 178.64275 607.75 178.64275zM572 321.75V286H370.97775C344.45125 286 321.75 304.2325000000001 321.75 329.2575000000001V464.75H357.5V329.2575000000001C357.5 325.897 362.68375 321.75 370.97775 321.75H572z" />
    <glyph glyph-name="inline"
      unicode="&#xE01D;"
      horiz-adv-x="1001" d=" M107.25 822.25H429A35.75 35.75 0 0 0 464.75 786.5V214.5A35.75 35.75 0 0 0 429 178.75H107.25A35.75 35.75 0 0 0 71.5 214.5V786.5A35.75 35.75 0 0 0 107.25 822.25zM572 822.25H893.75A35.75 35.75 0 0 0 929.5 786.5V214.5A35.75 35.75 0 0 0 893.75 178.75H572A35.75 35.75 0 0 0 536.25 214.5V786.5A35.75 35.75 0 0 0 572 822.25z" />
    <glyph glyph-name="instagram"
      unicode="&#xE01E;"
      horiz-adv-x="1001" d=" M250.25 965.25A214.5 214.5 0 0 1 35.75 750.75V250.25A214.5 214.5 0 0 1 250.25 35.75H750.75A214.5 214.5 0 0 1 965.25 250.25V750.75A214.5 214.5 0 0 1 750.75 965.25H250.25zM250.25 1001H750.75A250.25000000000006 250.25000000000006 0 0 0 1001 750.75V250.25A250.25000000000006 250.25000000000006 0 0 0 750.75 0H250.25A250.25000000000006 250.25000000000006 0 0 0 0 250.25V750.75A250.25000000000006 250.25000000000006 0 0 0 250.25 1001zM786.5 715A71.5 71.5 0 1 0 786.5 858A71.5 71.5 0 0 0 786.5 715zM786.5 750.75A35.75 35.75 0 1 1 786.5 822.25A35.75 35.75 0 0 1 786.5 750.75zM500.5 250.25A250.25000000000006 250.25000000000006 0 1 0 500.5 750.75A250.25000000000006 250.25000000000006 0 0 0 500.5 250.25zM500.5 286A214.5 214.5 0 1 1 500.5 715A214.5 214.5 0 0 1 500.5 286z" />
    <glyph glyph-name="laptop"
      unicode="&#xE01F;"
      horiz-adv-x="1001" d=" M71.5 750.75V286A71.5 71.5 0 0 1 143.286 214.5H857.714A71.57149999999999 71.57149999999999 0 0 1 929.5 286V750.75A71.5 71.5 0 0 1 857.714 822.25H143.286A71.57149999999999 71.57149999999999 0 0 1 71.5 750.75zM35.75 750.75C35.75 809.98775 83.76225 858 143.286 858H857.714A107.25 107.25 0 0 0 965.25 750.75V286C965.25 226.76225 917.23775 178.75 857.714 178.75H143.286A107.25 107.25 0 0 0 35.75 286V750.75z M143 322.0002500000001C143 321.8215000000002 857.9285 321.75 857.9285 321.75C858.10725 321.75 858 750.49975 858 750.49975C858 750.6785 143.0715 750.75 143.0715 750.75C142.89275 750.75 143 322.0002500000001 143 322.0002500000001zM107.25 750.49975A35.71425 35.71425 0 0 0 143.0715 786.5H857.9284999999999C877.6625 786.5 893.75 770.4125 893.75 750.49975V322.00025A35.71425 35.71425 0 0 0 857.9285 286H143.0715C123.3375 286 107.25 302.0875 107.25 322.0002500000001V750.49975zM35.75 160.875A17.875 17.875 0 0 1 53.80375 143H947.19625C957.3849999999998 143 965.2499999999998 150.865 965.2499999999998 160.875V178.75H35.75V160.875zM0 214.5H1001V160.875C1001 131.274 977.22625 107.25 947.19625 107.25H53.80375A53.58925 53.58925 0 0 0 0 160.875V214.5z M393.25 178.75H607.75V160.875A17.875 17.875 0 0 0 590.1967500000001 143H410.80325A17.875 17.875 0 0 0 393.25 160.875V178.75z" />
    <glyph glyph-name="loader-bars-equal"
      unicode="&#xE020;"
      horiz-adv-x="1001" d=" M107.25 929.5H286V71.5H107.25V929.5zM393.25 929.5H572V71.5H393.25V929.5zM679.25 929.5H858V71.5H679.25V929.5z" />
    <glyph glyph-name="loader-bars-flex"
      unicode="&#xE021;"
      horiz-adv-x="1001" d=" M107.25 858H286V143H107.25V858zM393.25 929.5H572V71.5H393.25V929.5zM679.25 786.5H858V214.5H679.25V786.5z" />
    <glyph glyph-name="loader-circle"
      unicode="&#xE022;"
      horiz-adv-x="1001" d=" M500.5 786.5V929.5C737.41525 929.5 929.5 737.41525 929.5 500.5S737.41525 71.5 500.5 71.5S71.5 263.58475 71.5 500.5H214.5A286 286 0 1 1 500.5 786.5z" />
    <glyph glyph-name="loader-track"
      unicode="&#xE023;"
      horiz-adv-x="1001" d=" M500.5 750.75V929.5C737.41525 929.5 929.5 737.41525 929.5 500.5H750.75A250.25000000000006 250.25000000000006 0 1 0 500.5 750.75zM500.5 715A214.5 214.5 0 1 1 500.5 286A214.5 214.5 0 0 1 500.5 715V750.75zM500.5 71.5C263.58475 71.5 71.5 263.58475 71.5 500.5S263.58475 929.5 500.5 929.5S929.5 737.41525 929.5 500.5S737.41525 71.5 500.5 71.5zM500.5 107.25C717.68125 107.25 893.75 283.31875 893.75 500.5S717.68125 893.75 500.5 893.75S107.25 717.6812500000001 107.25 500.5S283.31875 107.25 500.5 107.25z" />
    <glyph glyph-name="map"
      unicode="&#xE024;"
      horiz-adv-x="1001" d=" M598.9555 750.75C598.70525 688.402 595.5235 635.52775 587.9802500000001 589.875H929.5V715A35.75 35.75 0 0 1 893.75 750.75H598.9554999999999zM563.2055 750.75H464.75C464.75 652.04425 286 393.25 286 393.25S107.25 652.04425 107.25 750.75A35.75 35.75 0 0 1 71.5 715V178.75A35.75 35.75 0 0 1 107.25 143H146.11025C155.441 219.32625 223.8665 286.7865 348.5625 346.73925C520.62725 429.3575 562.3475 514.371 563.2055 750.75zM182.21775 143H816.4585000000001L489.6320000000001 393.6075A18.196749999999998 18.196749999999998 0 0 0 489.09575 394.0365C456.77775 364.8287499999999 415.7725000000001 339.339 364.0780000000001 314.4927499999999C251.85875 260.6175 192.1205 203.06 182.21775 143zM514.40675 419.6692500000001L874.69525 143.3932500000001L875.19575 143.0000000000001H893.75A35.75 35.75 0 0 1 929.5 178.7500000000001V554.125H580.7945000000001C567.74575 499.785 546.6532500000001 456.56325 514.4067500000001 419.6692500000001zM461.175 786.5H893.75A71.5 71.5 0 0 0 965.25 715V178.75A71.5 71.5 0 0 0 893.75 107.25H107.25A71.5 71.5 0 0 0 35.75 178.75V715A71.5 71.5 0 0 0 107.25 786.5H110.825A178.82150000000001 178.82150000000001 0 0 0 461.175 786.5zM344.45125 552.9095C355.39075 571.74975 365.54375 590.018 374.7672500000001 607.49975C409.3375 672.9222500000001 429 724.438 429 750.75A143 143 0 1 1 143 750.75C143 724.438 162.6625 672.958 197.23275 607.49975C206.45625 589.98225 216.60925 571.74975 227.54875 552.9095C246.13875 520.8775 266.0515 488.7025000000001 286 457.8502500000001A2302.4429999999998 2302.4429999999998 0 0 1 344.45125 552.9452500000001zM286 661.375A89.375 89.375 0 1 0 286 840.125A89.375 89.375 0 0 0 286 661.375zM286 697.125A53.625 53.625 0 1 1 286 804.375A53.625 53.625 0 0 1 286 697.125z" />
    <glyph glyph-name="masonry-columns"
      unicode="&#xE025;"
      horiz-adv-x="1001" d=" M107.25 929.5H429A35.75 35.75 0 0 0 464.75 893.75V536.25A35.75 35.75 0 0 0 429 500.5H107.25A35.75 35.75 0 0 0 71.5 536.25V893.75A35.75 35.75 0 0 0 107.25 929.5zM607.75 929.5H893.75A35.75 35.75 0 0 0 929.5 893.75V679.25A35.75 35.75 0 0 0 893.75 643.5H607.75A35.75 35.75 0 0 0 572 679.25V893.75A35.75 35.75 0 0 0 607.75 929.5zM607.75 536.25H893.75A35.75 35.75 0 0 0 929.5 500.5V107.25A35.75 35.75 0 0 0 893.75 71.5H607.75A35.75 35.75 0 0 0 572 107.25V500.5A35.75 35.75 0 0 0 607.75 536.25zM107.25 393.25H429A35.75 35.75 0 0 0 464.75 357.5V107.25A35.75 35.75 0 0 0 429 71.5H107.25A35.75 35.75 0 0 0 71.5 107.25V357.5A35.75 35.75 0 0 0 107.25 393.25z" />
    <glyph glyph-name="masonry-mixed"
      unicode="&#xE026;"
      horiz-adv-x="1001" d=" M107.25 929.5H572A35.75 35.75 0 0 0 607.75 893.75V429A35.75 35.75 0 0 0 572 393.25H107.25A35.75 35.75 0 0 0 71.5 429V893.75A35.75 35.75 0 0 0 107.25 929.5zM750.75 929.5H893.75A35.75 35.75 0 0 0 929.5 893.75V750.75A35.75 35.75 0 0 0 893.75 715H750.75A35.75 35.75 0 0 0 715 750.75V893.75A35.75 35.75 0 0 0 750.75 929.5zM750.75 607.75H893.75A35.75 35.75 0 0 0 929.5 572V107.25A35.75 35.75 0 0 0 893.75 71.5H750.75A35.75 35.75 0 0 0 715 107.25V572A35.75 35.75 0 0 0 750.75 607.75zM429 286H572A35.75 35.75 0 0 0 607.75 250.25V107.25A35.75 35.75 0 0 0 572 71.5H429A35.75 35.75 0 0 0 393.25 107.25V250.25A35.75 35.75 0 0 0 429 286zM107.25 286H250.25A35.75 35.75 0 0 0 286 250.25V107.25A35.75 35.75 0 0 0 250.25 71.5H107.25A35.75 35.75 0 0 0 71.5 107.25V250.25A35.75 35.75 0 0 0 107.25 286z" />
    <glyph glyph-name="mobile-landscape"
      unicode="&#xE027;"
      horiz-adv-x="1001" d=" M893.893 786.5C953.0235 786.5 1001 735.735 1001 672.1714999999999V293.0785C1001 229.944 952.7375 178.75 893.893 178.75H107.107C47.9765 178.75 0 229.5150000000001 0 293.0785V672.1714999999999C0 735.306 48.2625 786.5 107.107 786.5H893.8929999999999zM856.2125 715H252.0375C231.26675 715 214.5 697.6255 214.5 676.1755V289.0745C214.5 267.9105 231.3025 250.25 252.00175 250.25H856.2125C876.9474999999999 250.25 893.71425 267.6245 893.71425 289.0745V676.1755C893.75 697.3395 876.9475 715 856.24825 715zM929.5 482.625A17.875 17.875 0 1 1 965.25 482.625A17.875 17.875 0 0 1 929.5 482.625zM71.5 482.625A53.625 53.625 0 1 1 178.75 482.625A53.625 53.625 0 0 1 71.5 482.625z" />
    <glyph glyph-name="mobile-portrait"
      unicode="&#xE028;"
      horiz-adv-x="1001" d=" M214.5 893.893A106.96399999999998 106.96399999999998 0 0 0 321.75 1001H715C774.23775 1001 822.25 952.7375 822.25 893.893V107.1070000000001A106.96399999999998 106.96399999999998 0 0 0 715 0H321.75C262.51225 0 214.5 48.2625 214.5 107.107V893.893zM286 858.17875V250.07125A35.75 35.75 0 0 1 321.71425 214.4999999999999H715A35.64275 35.64275 0 0 1 750.71425 250.07125V858.17875A35.75 35.75 0 0 1 715.03575 893.75H321.75A35.64275 35.64275 0 0 1 286 858.17875zM518.375 929.5A17.875 17.875 0 1 1 518.375 965.25A17.875 17.875 0 0 1 518.375 929.5zM518.375 71.5A53.625 53.625 0 1 1 518.375 178.75A53.625 53.625 0 0 1 518.375 71.5z" />
    <glyph glyph-name="mobile-screen-bottom"
      unicode="&#xE029;"
      horiz-adv-x="1001" d=" M214.5 893.893A106.96399999999998 106.96399999999998 0 0 0 321.75 1001H715C774.23775 1001 822.25 952.7375 822.25 893.893V107.1070000000001A106.96399999999998 106.96399999999998 0 0 0 715 0H321.75C262.51225 0 214.5 48.2625 214.5 107.107V893.893zM286 858.17875V250.07125A35.75 35.75 0 0 1 321.71425 214.4999999999999H715A35.64275 35.64275 0 0 1 750.71425 250.07125V858.17875A35.75 35.75 0 0 1 715.03575 893.75H321.75A35.64275 35.64275 0 0 1 286 858.17875zM518.375 929.5A17.875 17.875 0 1 1 518.375 965.25A17.875 17.875 0 0 1 518.375 929.5zM518.375 71.5A53.625 53.625 0 1 1 518.375 178.75A53.625 53.625 0 0 1 518.375 71.5zM321.75 357.53575C321.75 377.2697500000001 337.65875 393.25 357.3570000000001 393.25H679.3929999999999C699.0554999999999 393.25 714.9999999999999 377.41275 714.9999999999999 357.53575V321.7142500000001A35.64275 35.64275 0 0 0 679.3929999999999 286.0000000000001H357.3570000000001A35.535500000000006 35.535500000000006 0 0 0 321.75 321.71425V357.5357499999999z" />
    <glyph glyph-name="mobile-screen-center"
      unicode="&#xE02A;"
      horiz-adv-x="1001" d=" M214.5 893.893A106.96399999999998 106.96399999999998 0 0 0 321.75 1001H715C774.23775 1001 822.25 952.7375 822.25 893.893V107.1070000000001A106.96399999999998 106.96399999999998 0 0 0 715 0H321.75C262.51225 0 214.5 48.2625 214.5 107.107V893.893zM286 858.17875V250.07125A35.75 35.75 0 0 1 321.71425 214.4999999999999H715A35.64275 35.64275 0 0 1 750.71425 250.07125V858.17875A35.75 35.75 0 0 1 715.03575 893.75H321.75A35.64275 35.64275 0 0 1 286 858.17875zM518.375 929.5A17.875 17.875 0 1 1 518.375 965.25A17.875 17.875 0 0 1 518.375 929.5zM518.375 71.5A53.625 53.625 0 1 1 518.375 178.75A53.625 53.625 0 0 1 518.375 71.5zM321.75 572.03575C321.75 591.7697499999999 337.65875 607.75 357.3570000000001 607.75H679.3929999999999C699.0554999999999 607.75 714.9999999999999 591.91275 714.9999999999999 572.03575V536.21425A35.64275 35.64275 0 0 0 679.3929999999999 500.4999999999999H357.3570000000001A35.535500000000006 35.535500000000006 0 0 0 321.75 536.21425V572.03575z" />
    <glyph glyph-name="mobile-screen-custom"
      unicode="&#xE02B;"
      horiz-adv-x="1001" d=" M214.5 893.893A106.96399999999998 106.96399999999998 0 0 0 321.75 1001H715C774.23775 1001 822.25 952.7375 822.25 893.893V107.1070000000001A106.96399999999998 106.96399999999998 0 0 0 715 0H321.75C262.51225 0 214.5 48.2625 214.5 107.107V893.893zM286 858.17875V250.07125A35.75 35.75 0 0 1 321.71425 214.4999999999999H715A35.64275 35.64275 0 0 1 750.71425 250.07125V858.17875A35.75 35.75 0 0 1 715.03575 893.75H321.75A35.64275 35.64275 0 0 1 286 858.17875zM518.375 929.5A17.875 17.875 0 1 1 518.375 965.25A17.875 17.875 0 0 1 518.375 929.5zM518.375 71.5A53.625 53.625 0 1 1 518.375 178.75A53.625 53.625 0 0 1 518.375 71.5zM321.75 536.25C321.75 555.9839999999999 337.65875 572 357.3570000000001 572H679.3929999999999C699.0554999999999 572 714.9999999999999 556.127 714.9999999999999 536.25C714.9999999999999 516.5160000000001 699.0912499999998 500.5 679.3929999999999 500.5H357.3570000000001A35.57125 35.57125 0 0 0 321.75 536.25zM429 679.25C429 698.9839999999999 444.8730000000001 715 464.75 715H572C591.734 715 607.75 699.127 607.75 679.25C607.75 659.5160000000001 591.8770000000001 643.5 572 643.5H464.75C445.016 643.5 429 659.373 429 679.25zM429 393.25C429 412.9840000000001 444.8730000000001 429 464.75 429H572C591.734 429 607.75 413.1270000000001 607.75 393.25C607.75 373.516 591.8770000000001 357.5 572 357.5H464.75C445.016 357.5 429 373.373 429 393.25z" />
    <glyph glyph-name="mobile-screen-top"
      unicode="&#xE02C;"
      horiz-adv-x="1001" d=" M214.5 893.893A106.96399999999998 106.96399999999998 0 0 0 321.75 1001H715C774.23775 1001 822.25 952.7375 822.25 893.893V107.1070000000001A106.96399999999998 106.96399999999998 0 0 0 715 0H321.75C262.51225 0 214.5 48.2625 214.5 107.107V893.893zM286 858.17875V250.07125A35.75 35.75 0 0 1 321.71425 214.4999999999999H715A35.64275 35.64275 0 0 1 750.71425 250.07125V858.17875A35.75 35.75 0 0 1 715.03575 893.75H321.75A35.64275 35.64275 0 0 1 286 858.17875zM518.375 929.5A17.875 17.875 0 1 1 518.375 965.25A17.875 17.875 0 0 1 518.375 929.5zM518.375 71.5A53.625 53.625 0 1 1 518.375 178.75A53.625 53.625 0 0 1 518.375 71.5zM321.75 786.53575C321.75 806.2697499999999 337.65875 822.25 357.3570000000001 822.25H679.3929999999999C699.0554999999999 822.25 714.9999999999999 806.41275 714.9999999999999 786.53575V750.71425A35.64275 35.64275 0 0 0 679.3929999999999 715H357.3570000000001A35.535500000000006 35.535500000000006 0 0 0 321.75 750.71425V786.53575z" />
    <glyph glyph-name="mobile"
      unicode="&#xE02D;"
      horiz-adv-x="1001" d=" M643.5 143A35.75 35.75 0 1 1 643.5 71.5A35.75 35.75 0 0 1 643.5 143 M965.25 106.9282499999999A71.2855 71.2855 0 0 0 893.9645 35.78575H393.0355C353.7105 35.75 321.75 67.67475 321.75 106.99975V321.75H357.17825L357.5 321.78575V211.0322500000001C357.5 192.9427500000001 373.516 178.7500000000001 393.28575 178.7500000000001H893.71425C913.59125 178.7500000000001 929.5 192.9785000000002 929.5 210.5675000000001V718.9325C929.5 736.307 913.37675 750.75 893.49975 750.75H429V822.25H893.4282499999999C933.11075 822.25 965.25 790.2895 965.25 751.1075V106.8924999999999zM71.82175 357.5357499999999C51.80175 357.5 35.75 373.4087500000001 35.75 393.107V500.5H393.25V393.14275C393.25 373.55175 377.091 357.5 357.17825 357.5H71.82175zM35.75 536.25H393.25V858H35.75V536.25zM35.75 929.53575C35.75 949.234 51.909 965.25 71.82175 965.25H357.17825C377.1982500000001 965.25 393.25 949.3055 393.25 929.5715V893.75H35.75V929.5715zM429 393.107V715H893.75V214.5H393.25V331.76C414.52125 344.1652500000002 429 366.8665 429 393.14275zM893.4282499999999 858H429V929.5715A71.53575 71.53575 0 0 1 357.17825 1001H71.82175A71.67875000000001 71.67875000000001 0 0 1 0 929.5715V393.14275A71.5 71.5 0 0 1 71.82175 321.75H286V107.0355A107.107 107.107 0 0 1 393.0355 0H893.9645A107.0355 107.0355 0 0 1 1001 106.9282499999999V751.1075A107.3215 107.3215 0 0 1 893.4282499999999 858z M214.5 464.75A35.75 35.75 0 1 1 214.5 393.25A35.75 35.75 0 0 1 214.5 464.75" />
    <glyph glyph-name="offcanvas-bottom"
      unicode="&#xE02E;"
      horiz-adv-x="1001" d=" M35.75 822.5717500000001V178.3924999999999C35.75 139.17475 67.7105 107.25 107.107 107.25H893.8929999999999A71.5 71.5 0 0 1 965.25 178.4282499999999V822.6075A71.32124999999999 71.32124999999999 0 0 1 893.893 893.75H107.107A71.5 71.5 0 0 1 35.75 822.5717500000001zM0 822.5717500000001A107.25 107.25 0 0 0 107.107 929.5H893.8929999999999A107.07125000000002 107.07125000000002 0 0 0 1001 822.5717500000001V178.3924999999999A107.25 107.25 0 0 0 893.893 71.5H107.107A107.07125000000002 107.07125000000002 0 0 0 0 178.4282499999999V822.6075z M500.5 752.71625L467.467 719.6475A16.731 16.731 0 1 0 443.8005 743.2782500000001L518.375 817.85275L592.9495 743.2782500000001A16.731 16.731 0 1 0 569.3187499999999 719.6475L536.25 752.71625V627.1980000000001A17.875 17.875 0 1 0 500.5 627.1980000000001V752.6805z M908.4075 500.5L658.6222500000001 103.85375A17.875 17.875 0 1 1 688.9025000000001 84.799L944.6222500000002 490.9905A17.8035 17.8035 0 0 1 947.375 500.5H1001V536.25H0V500.5H50.65775L2.5025 420.3127500000001A17.875 17.875 0 0 1 33.176 401.9372500000001L86.801 491.3122500000001A17.8035 17.8035 0 0 1 89.375 500.5H157.55025L9.18775 268.01775A17.875 17.875 0 0 1 39.325 248.7842500000001L193.765 490.8475A17.8035 17.8035 0 0 1 196.625 500.46425H264.693L33.176 140.60475A17.875 17.875 0 1 1 63.24175 121.264L301.015 490.81175A17.8035 17.8035 0 0 1 303.875 500.5H372.05025L118.118 103.389A17.875 17.875 0 0 1 148.25525 84.1555L408.265 490.8475A17.8035 17.8035 0 0 1 411.125 500.46425H479.336L229.62225 103.85375A17.875 17.875 0 1 1 259.9025 84.799L515.6222499999999 490.9905A17.8035 17.8035 0 0 1 518.375 500.5H586.6575L336.8365 103.85375A17.875 17.875 0 1 1 367.11675 84.799L622.8365 490.9905A17.8035 17.8035 0 0 1 625.625 500.5H693.9075L444.12225 103.85375A17.875 17.875 0 1 1 474.4025 84.799L730.1222499999999 490.9905A17.8035 17.8035 0 0 1 732.875 500.5H801.1575L551.37225 103.85375A17.875 17.875 0 1 1 581.6525 84.799L837.3722499999999 490.9905A17.8035 17.8035 0 0 1 840.125 500.5H908.4075zM765.8722500000001 103.85375A17.875 17.875 0 1 1 796.1525000000001 84.799L989.417 393.78625A17.875 17.875 0 1 1 959.1725 412.80525L765.8722500000001 103.85375zM872.3357500000001 102.6025000000001A17.875 17.875 0 0 1 902.6160000000002 83.54775L995.6375000000002 235.27075A17.875 17.875 0 0 1 965.3930000000003 254.3255000000001L872.3357500000001 102.6025000000001z" />
    <glyph glyph-name="offcanvas-left"
      unicode="&#xE02F;"
      horiz-adv-x="1001" d=" M965.25 268.73275V333.7262500000001L605.5335 107.25H708.7795L965.25 268.73275zM965.25 226.4762500000001L775.88225 107.25H893.85725A71.5 71.5 0 0 1 965.25 178.4282499999999V226.4762500000001zM965.25 375.9827500000001V440.9762500000001L581.5094999999999 199.3777500000001A17.8035 17.8035 0 0 0 572 196.625V128.3425L965.25 375.98275zM554.125 107.25H536.25V893.75H107.107A71.5 71.5 0 0 1 35.75 822.5717500000001V178.3924999999999C35.75 139.17475 67.7105 107.25 107.107 107.25H554.125zM965.25 483.23275V548.2262499999999L581.5094999999999 306.6277499999999A17.8035 17.8035 0 0 0 572 303.875V235.5925L965.25 483.23275zM965.25 590.4827499999999V655.47625L581.5094999999999 413.8777500000001A17.8035 17.8035 0 0 0 572 411.125V342.8425L965.25 590.4827499999999zM965.25 697.7327499999999V766.48L581.6525 521.19925A17.8035 17.8035 0 0 0 572 518.33925V450.1282500000001L965.25 697.7327500000001zM965.25 808.91525V822.57175C965.25 838.80225 959.78025 853.81725 950.55675 865.82925L581.68825 628.4492499999999A17.8035 17.8035 0 0 0 572 625.58925V557.44975L965.25 808.9152499999999zM666.3085000000001 893.75L581.2235000000001 842.66325A17.8035 17.8035 0 0 0 572 840.125V771.94975L762.86925 893.75H666.34425zM596.84625 893.75H572V878.84225L596.84625 893.75zM661.0532499999999 929.5A17.875 17.875 0 0 0 661.661 929.5H893.8929999999999A107.07125000000002 107.07125000000002 0 0 0 1001 822.5717500000001V178.3924999999999A107.25 107.25 0 0 0 893.893 71.5H107.107A107.07125000000002 107.07125000000002 0 0 0 0 178.4282499999999V822.6075A107.25 107.25 0 0 0 107.107 929.5H661.0532499999999zM827.79125 893.75A17.875 17.875 0 0 0 823.71575 890.175L581.6525 735.735A17.8035 17.8035 0 0 0 572.03575 732.875V664.807L920.16925 888.78075A71.214 71.214 0 0 1 893.92875 893.78575H827.8270000000001zM286.6435 713.57L319.7122500000001 680.537A16.731 16.731 0 1 0 296.0815000000001 656.90625L221.507 731.4449999999999L296.0815 806.0195A16.731 16.731 0 1 0 319.6765000000001 782.353L286.6435 749.3199999999999H447.8760000000001A17.875 17.875 0 0 0 447.8760000000001 713.5699999999999H286.6435z" />
    <glyph glyph-name="offcanvas-overlay"
      unicode="&#xE030;"
      horiz-adv-x="1001" d=" M107.25 893.75A71.5 71.5 0 0 1 35.75 822.25V178.75A71.5 71.5 0 0 1 107.25 107.25H893.75A71.5 71.5 0 0 1 965.25 178.75V822.25A71.5 71.5 0 0 1 893.75 893.75H107.25zM107.25 929.5H893.75A107.25 107.25 0 0 0 1001 822.25V178.75A107.25 107.25 0 0 0 893.75 71.5H107.25A107.25 107.25 0 0 0 0 178.75V822.25A107.25 107.25 0 0 0 107.25 929.5z M393.25 929.5V71.5H357.5V929.5zM221.8645 749.3199999999999L188.8315 782.38875A16.731 16.731 0 0 0 212.4265 806.05525L287.0725 731.4449999999999L212.46225 656.90625A16.731 16.731 0 1 0 188.8315 680.50125L221.8645 713.60575H132.132A17.875 17.875 0 1 0 132.132 749.35575H221.8645z M375.375 643.5H840.125ANaN NaN NaN 0 0 858 643.5V607.75ANaN NaN NaN 0 0 840.125 607.75H375.375ANaN NaN NaN 0 0 357.5 607.75V643.5ANaN NaN NaN 0 0 375.375 643.5z M375.375 536.25H732.875ANaN NaN NaN 0 0 750.75 536.25V500.5ANaN NaN NaN 0 0 732.875 500.5H375.375ANaN NaN NaN 0 0 357.5 500.5V536.25ANaN NaN NaN 0 0 375.375 536.25z M375.375 429H661.375ANaN NaN NaN 0 0 679.25 429V393.25ANaN NaN NaN 0 0 661.375 393.25H375.375ANaN NaN NaN 0 0 357.5 393.25V429ANaN NaN NaN 0 0 375.375 429z" />
    <glyph glyph-name="offcanvas-push"
      unicode="&#xE031;"
      horiz-adv-x="1001" d=" M107.25 893.75A71.5 71.5 0 0 1 35.75 822.25V178.75A71.5 71.5 0 0 1 107.25 107.25H893.75A71.5 71.5 0 0 1 965.25 178.75V822.25A71.5 71.5 0 0 1 893.75 893.75H107.25zM107.25 929.5H893.75A107.25 107.25 0 0 0 1001 822.25V178.75A107.25 107.25 0 0 0 893.75 71.5H107.25A107.25 107.25 0 0 0 0 178.75V822.25A107.25 107.25 0 0 0 107.25 929.5z M393.25 929.5V71.5H357.5V929.5zM221.8645 749.3199999999999L188.8315 782.38875A16.731 16.731 0 0 0 212.4265 806.05525L287.0725 731.4449999999999L212.46225 656.90625A16.731 16.731 0 1 0 188.8315 680.50125L221.8645 713.60575H132.132A17.875 17.875 0 1 0 132.132 749.35575H221.8645z M518.375 643.5H840.125ANaN NaN NaN 0 0 858 643.5V607.75ANaN NaN NaN 0 0 840.125 607.75H518.375ANaN NaN NaN 0 0 500.5 607.75V643.5ANaN NaN NaN 0 0 518.375 643.5z M518.375 536.25H732.875ANaN NaN NaN 0 0 750.75 536.25V500.5ANaN NaN NaN 0 0 732.875 500.5H518.375ANaN NaN NaN 0 0 500.5 500.5V536.25ANaN NaN NaN 0 0 518.375 536.25z M518.375 429H661.375ANaN NaN NaN 0 0 679.25 429V393.25ANaN NaN NaN 0 0 661.375 393.25H518.375ANaN NaN NaN 0 0 500.5 393.25V429ANaN NaN NaN 0 0 518.375 429z" />
    <glyph glyph-name="offcanvas-reveal"
      unicode="&#xE032;"
      horiz-adv-x="1001" d=" M107.25 893.75A71.5 71.5 0 0 1 35.75 822.25V178.75A71.5 71.5 0 0 1 107.25 107.25H893.75A71.5 71.5 0 0 1 965.25 178.75V822.25A71.5 71.5 0 0 1 893.75 893.75H107.25zM107.25 929.5H893.75A107.25 107.25 0 0 0 1001 822.25V178.75A107.25 107.25 0 0 0 893.75 71.5H107.25A107.25 107.25 0 0 0 0 178.75V822.25A107.25 107.25 0 0 0 107.25 929.5z M393.25 929.5V71.5H357.5V929.5zM608.1075000000001 760.65275L575.0745000000001 793.7215A16.731 16.731 0 1 0 598.7052500000001 817.3522499999999L673.27975 742.77775L598.7052500000001 668.20325A16.731 16.731 0 1 0 575.0745000000001 691.834L608.1432500000001 724.90275H518.375A17.875 17.875 0 1 0 518.375 760.65275H608.1075z M518.375 536.25H840.125ANaN NaN NaN 0 0 858 536.25V500.5ANaN NaN NaN 0 0 840.125 500.5H518.375ANaN NaN NaN 0 0 500.5 500.5V536.25ANaN NaN NaN 0 0 518.375 536.25z M518.375 429H732.875ANaN NaN NaN 0 0 750.75 429V393.25ANaN NaN NaN 0 0 732.875 393.25H518.375ANaN NaN NaN 0 0 500.5 393.25V429ANaN NaN NaN 0 0 518.375 429z M518.375 321.75H661.375ANaN NaN NaN 0 0 679.25 321.75V286ANaN NaN NaN 0 0 661.375 286H518.375ANaN NaN NaN 0 0 500.5 286V321.75ANaN NaN NaN 0 0 518.375 321.75z" />
    <glyph glyph-name="offcanvas-right"
      unicode="&#xE033;"
      horiz-adv-x="1001" d=" M0 256.256V822.5717500000001A107.25 107.25 0 0 0 107.107 929.5H893.893A107.07125000000002 107.07125000000002 0 0 0 1001 822.5717500000001V178.3924999999999A107.25 107.25 0 0 0 893.893 71.5H107.107A107.07125000000002 107.07125000000002 0 0 0 0 178.4282499999999V256.256zM288.03775 107.25H391.0335L35.75 330.9735V266.123L288.03775 107.25zM220.9707500000001 107.25L35.75 223.8665V178.4640000000001C35.75 139.139 67.7105 107.25 107.107 107.25H220.97075zM49.08475 863.863A70.5705 70.5705 0 0 1 35.75 822.6075V806.1625L424.60275 557.4855V625.625A17.8035 17.8035 0 0 0 414.9502500000001 628.485L49.049 863.82725zM78.221 887.63675L424.60275 664.7355V732.875A17.8035 17.8035 0 0 0 414.986 735.6635L172.887 890.175A17.875 17.875 0 0 0 168.8115 893.75H107.107C96.84675 893.75 87.087 891.56925 78.221 887.63675zM233.7335 893.75L424.60275 771.94975V840.125A17.8035 17.8035 0 0 0 415.415 842.66325L330.2585 893.75H233.7335zM399.7565 893.75L424.60275 878.84225V893.75H399.7565zM460.35275 893.75V107.25H893.893A71.5 71.5 0 0 1 965.25 178.4282499999999V822.6075A71.32124999999999 71.32124999999999 0 0 1 893.893 893.75H460.35275zM35.75 373.23L424.60275 128.3425000000001V196.625A17.8035 17.8035 0 0 0 415.09325 199.3777500000001L35.75 438.18775V373.19425zM35.75 480.48L424.60275 235.5925000000001V303.875A17.8035 17.8035 0 0 0 415.09325 306.6277500000001L35.75 545.43775V480.44425zM35.75 587.73L424.60275 342.8425000000001V411.125A17.8035 17.8035 0 0 0 415.09325 413.8777500000001L35.75 652.68775V587.69425zM35.75 694.98L424.60275 450.0925000000001V518.375A17.8035 17.8035 0 0 0 414.9502500000001 521.19925L35.75 763.62V694.98zM722.3645 749.32L689.3315 782.3887500000001A16.731 16.731 0 1 0 712.9265 806.05525L787.5725 731.4449999999999L712.998 656.8705A16.731 16.731 0 1 0 689.36725 680.4655L722.40025 713.57H561.1677500000001A17.875 17.875 0 1 0 561.1677500000001 749.32H722.40025z" />
    <glyph glyph-name="offcanvas-shift"
      unicode="&#xE034;"
      horiz-adv-x="1001" d=" M107.25 893.75A71.5 71.5 0 0 1 35.75 822.25V178.75A71.5 71.5 0 0 1 107.25 107.25H893.75A71.5 71.5 0 0 1 965.25 178.75V822.25A71.5 71.5 0 0 1 893.75 893.75H107.25zM107.25 929.5H893.75A107.25 107.25 0 0 0 1001 822.25V178.75A107.25 107.25 0 0 0 893.75 71.5H107.25A107.25 107.25 0 0 0 0 178.75V822.25A107.25 107.25 0 0 0 107.25 929.5z M393.25 929.5V71.5H357.5V929.5zM608.1075000000001 760.65275L575.0745000000001 793.7215A16.731 16.731 0 1 0 598.7052500000001 817.3522499999999L673.27975 742.77775L598.7052500000001 668.20325A16.731 16.731 0 1 0 575.0745000000001 691.834L608.1432500000001 724.90275H518.375A17.875 17.875 0 1 0 518.375 760.65275H608.1075zM214.8575 760.65275L181.8245 793.7215A16.731 16.731 0 1 0 205.45525 817.3522499999999L280.02975 742.77775L205.45525 668.20325A16.731 16.731 0 1 0 181.8245 691.834L214.89325 724.90275H125.125A17.875 17.875 0 0 0 125.125 760.65275H214.8575z M518.375 536.25H840.125ANaN NaN NaN 0 0 858 536.25V500.5ANaN NaN NaN 0 0 840.125 500.5H518.375ANaN NaN NaN 0 0 500.5 500.5V536.25ANaN NaN NaN 0 0 518.375 536.25z M518.375 429H732.875ANaN NaN NaN 0 0 750.75 429V393.25ANaN NaN NaN 0 0 732.875 393.25H518.375ANaN NaN NaN 0 0 500.5 393.25V429ANaN NaN NaN 0 0 518.375 429z M518.375 321.75H661.375ANaN NaN NaN 0 0 679.25 321.75V286ANaN NaN NaN 0 0 661.375 286H518.375ANaN NaN NaN 0 0 500.5 286V321.75ANaN NaN NaN 0 0 518.375 321.75z" />
    <glyph glyph-name="offcanvas-top"
      unicode="&#xE035;"
      horiz-adv-x="1001" d=" M35.75 822.5717500000001V178.3924999999999C35.75 139.17475 67.7105 107.25 107.107 107.25H893.8929999999999A71.5 71.5 0 0 1 965.25 178.4282499999999V822.6075A71.32124999999999 71.32124999999999 0 0 1 893.893 893.75H107.107A71.5 71.5 0 0 1 35.75 822.5717500000001zM0 822.5717500000001A107.25 107.25 0 0 0 107.107 929.5H893.8929999999999A107.07125000000002 107.07125000000002 0 0 0 1001 822.5717500000001V178.3924999999999A107.25 107.25 0 0 0 893.893 71.5H107.107A107.07125000000002 107.07125000000002 0 0 0 0 178.4282499999999V822.6075z M500.5 245.4952500000001L467.467 278.52825A16.731 16.731 0 1 1 443.8005 254.8974999999999L518.375 180.323L592.9495 254.8974999999999A16.731 16.731 0 1 1 569.3187499999999 278.52825L536.2499999999999 245.4952500000001V370.9777500000002A17.875 17.875 0 1 1 500.4999999999999 370.9777500000002V245.4952500000002z M0 464.75V500.5H1001V464.75z M33.176 860.39525A17.875 17.875 0 1 0 63.24175 879.736L301.015 510.18825A17.875 17.875 0 1 0 270.985 490.81175L33.176 860.39525zM9.18775 732.98225A17.875 17.875 0 0 0 39.325 752.2157500000001L193.765 510.1525A17.875 17.875 0 0 0 163.6635 490.919L9.18775 732.98225zM2.53825 580.68725A17.875 17.875 0 0 0 33.21175 599.06275L86.83675 509.68775A17.875 17.875 0 0 0 56.16325 491.31225L2.53825 580.68725zM118.118 897.611A17.875 17.875 0 0 0 148.25525 916.8445L408.265 510.1525A17.875 17.875 0 0 0 378.1635 490.919L118.118 897.611zM229.658 897.14625A17.875 17.875 0 1 0 259.9025000000001 916.201L515.62225 510.0095A17.875 17.875 0 1 0 485.37775 490.9905L229.62225 897.14625zM336.908 897.14625A17.875 17.875 0 1 0 367.1525 916.201L622.8722499999999 510.0095A17.875 17.875 0 1 0 592.6277499999999 490.9905L336.87225 897.14625zM444.158 897.14625A17.875 17.875 0 1 0 474.4025 916.201L730.1222499999999 510.0095A17.875 17.875 0 1 0 699.8777499999999 490.9905L444.12225 897.14625zM551.408 897.14625A17.875 17.875 0 1 0 581.6525 916.201L837.3722499999999 510.0095A17.875 17.875 0 1 0 807.1277499999999 490.9905L551.37225 897.14625zM658.658 897.14625A17.875 17.875 0 1 0 688.9025 916.201L944.6222499999998 510.0095A17.875 17.875 0 1 0 914.3777499999998 490.9905L658.6222499999999 897.14625zM765.908 897.14625A17.875 17.875 0 1 0 796.1525 916.201L989.417 607.21375A17.875 17.875 0 1 0 959.1724999999998 588.19475L765.8722499999999 897.14625zM872.3 898.3975A17.875 17.875 0 0 0 902.58025 917.45225L995.60175 765.72925A17.875 17.875 0 0 0 965.35725 746.6745L872.33575 898.3975z" />
    <glyph glyph-name="offcanvas"
      unicode="&#xE036;"
      horiz-adv-x="1001" d=" M397.5757500000001 592.9495L435.5065 630.8445A17.875 17.875 0 1 0 460.78175 605.56925L422.88675 567.67425L460.78175 529.7435A17.875 17.875 0 0 0 435.5065 504.46825L397.6115 542.36325L359.68075 504.46825A17.875 17.875 0 0 0 334.4055 529.7435L372.3005 567.6385L334.4055 605.56925A17.875 17.875 0 1 0 359.68075 630.8445L397.5757500000001 592.9495zM708.7795 107.25L965.25 268.73275V333.7262500000001L605.5335 107.25H708.7795zM775.88225 107.25H893.85725A71.5 71.5 0 0 1 965.25 178.4282499999999V226.4762500000001L775.88225 107.25zM572 128.3425L965.25 375.98275V440.97625L581.5094999999999 199.3777499999999A17.8035 17.8035 0 0 0 572 196.625V128.3425zM554.125 107.25H536.25V715H35.75V750.75H965.25V715H886.4212500000001A17.8035 17.8035 0 0 0 880.98725 709.67325L581.5094999999999 521.1277500000001A17.8035 17.8035 0 0 0 572 518.375V450.0925L965.25 697.7327499999999V822.5717500000001A71.32124999999999 71.32124999999999 0 0 1 893.893 893.75H107.107A71.5 71.5 0 0 1 35.75 822.5717500000001V178.3924999999999C35.75 139.17475 67.7105 107.25 107.107 107.25H554.125zM572 235.5925L965.25 483.23275V548.2262499999999L581.5094999999999 306.6277499999999A17.8035 17.8035 0 0 0 572 303.875V235.5925zM572 342.8425L965.25 590.4827499999999V655.47625L581.5094999999999 413.8777500000001A17.8035 17.8035 0 0 0 572 411.125V342.8425zM822.35725 715H718.9325A18.089499999999997 18.089499999999997 0 0 0 717.3594999999999 713.9275L581.5094999999999 628.3777500000001A17.8035 17.8035 0 0 0 572 625.625V557.3425L822.35725 715zM652.0085 715H572V664.5925L652.0085 715zM0 822.5717500000001A107.25 107.25 0 0 0 107.107 929.5H893.8929999999999A107.07125000000002 107.07125000000002 0 0 0 1001 822.5717500000001V178.3924999999999A107.25 107.25 0 0 0 893.893 71.5H107.107A107.07125000000002 107.07125000000002 0 0 0 0 178.4282499999999V822.6075zM143 786.5A35.75 35.75 0 1 0 143 858A35.75 35.75 0 0 0 143 786.5zM250.25 786.5A35.75 35.75 0 1 0 250.25 858A35.75 35.75 0 0 0 250.25 786.5zM357.5 786.5A35.75 35.75 0 1 0 357.5 858A35.75 35.75 0 0 0 357.5 786.5z" />
    <glyph glyph-name="parallax-background"
      unicode="&#xE037;"
      horiz-adv-x="1001" d=" M214.5 715A17.875 17.875 0 0 0 207.064 700.4855L35.75 577.005V510.11675L319.9982500000001 715H214.5zM166.05875 715H71.17825A35.42825 35.42825 0 0 1 35.75 679.4645V621.049L166.05875 715zM381.13075 715L35.75 466.00125V406.9780000000001L462.99825 715H381.1307500000001zM750.75 303.875V362.89825L544.9015 214.5H626.769L750.75 303.875zM750.75 259.79525L687.9015 214.5H715.3217500000001A35.42825 35.42825 0 0 1 750.75 250.0355V259.79525zM750.75 406.9780000000001V465.9655L401.9015000000001 214.5H483.769L750.75 406.9780000000001zM750.75 510.081V569.0685000000001L258.9015 214.5H340.769L750.75 510.081zM750.75 613.14825V672.1714999999999L115.9015 214.5H197.769L750.75 613.14825zM737.8085000000001 706.9205000000001A35.21375 35.21375 0 0 1 715.2860000000001 715H667.13075L35.75 259.79525V250.0355C35.75 235.0205 45.045 222.1505 58.201 216.9667499999999L737.8085000000001 706.9205zM605.9625 715H524.095L35.75 362.89825V303.91075L605.99825 715zM750.75 741.27625V893.49975A35.75 35.75 0 0 1 715.3217500000001 929.5H71.1425A35.67850000000001 35.67850000000001 0 0 1 35.75 893.49975V741.312C46.189 747.318 58.2725 750.75 71.17825 750.75H715.3575000000001C728.2275000000001 750.75 740.3825 747.318 750.78575 741.2762500000001zM750.75 188.188C740.3109999999999 182.182 728.2275000000001 178.75 715.3217500000001 178.75H71.1425C58.2725 178.75 46.1175 182.182 35.71425 188.22375V71.7502500000001A35.75 35.75 0 0 1 71.17825 35.75H715.3575000000001A35.67850000000001 35.67850000000001 0 0 1 750.75 71.7502500000001V188.1880000000001zM965.25 562.4905V893.49975A35.71425 35.71425 0 1 1 893.75 893.49975V562.5262500000001A71.4285 71.4285 0 0 0 929.5 572A71.5 71.5 0 0 0 965.25 562.4905zM965.25 295.47375A71.4285 71.4285 0 0 0 929.5 286A71.5 71.5 0 0 0 893.75 295.5094999999999V71.7502499999999A35.71425 35.71425 0 1 1 965.25 71.7502499999999V295.4737499999999zM858 893.49975C858 933.075 889.7460000000001 965.25 929.5 965.25C969.00375 965.25 1001 933.1465 1001 893.49975V71.7502499999999A71.46425 71.46425 0 0 0 929.5 0C889.99625 0 858 32.1034999999999 858 71.7502500000001V893.49975zM893.75 500.5715V357.4285C893.75 337.5872500000001 909.623 321.75 929.5 321.75C949.41275 321.75 965.25 337.623 965.25 357.4285V500.5715A35.535500000000006 35.535500000000006 0 0 1 929.5 536.25C909.58725 536.25 893.75 520.377 893.75 500.5715zM0 893.4639999999999C0 933.18225 31.8175 965.25 71.17825 965.25H715.3575000000001A71.5 71.5 0 0 0 786.5 893.49975V71.7502499999999C786.5 32.175 754.6825 0 715.3217500000001 0H71.1425A71.5 71.5 0 0 0 0 71.7502500000001V893.49975z" />
    <glyph glyph-name="parallax-elements"
      unicode="&#xE038;"
      horiz-adv-x="1001" d=" M679.25 572H715.10725C754.5395000000001 572 786.5 540.0037500000001 786.5 500.7145V71.2855C786.5 31.92475 754.6825 0 715.10725 0H178.64275A71.39275 71.39275 0 0 0 107.25 71.2855V357.5H71.39275A71.32124999999999 71.32124999999999 0 0 0 0 429V893.75C0 933.25375 31.8175 965.25 71.39275 965.25H607.85725C647.2895000000001 965.25 679.25 933.4325 679.25 893.75V572zM643.5 572V893.75C643.5 913.627 627.59125 929.5 607.85725 929.5H71.39275A35.64275 35.64275 0 0 1 35.75 893.75V429C35.75 409.123 51.65875 393.25 71.39275 393.25H107.25V500.7145C107.25 540.07525 139.0675 572 178.64275 572H643.5zM965.25 562.4905V893.49975A35.71425 35.71425 0 1 1 893.75 893.49975V562.5262500000001A71.4285 71.4285 0 0 0 929.5 572A71.5 71.5 0 0 0 965.25 562.4905zM965.25 295.47375A71.4285 71.4285 0 0 0 929.5 286A71.5 71.5 0 0 0 893.75 295.5094999999999V71.7502499999999A35.71425 35.71425 0 1 1 965.25 71.7502499999999V295.4737499999999zM858 893.49975C858 933.075 889.7460000000001 965.25 929.5 965.25C969.00375 965.25 1001 933.1465 1001 893.49975V71.7502499999999A71.46425 71.46425 0 0 0 929.5 0C889.99625 0 858 32.1034999999999 858 71.7502500000001V893.49975zM893.75 500.5715V357.4285C893.75 337.5872500000001 909.623 321.75 929.5 321.75C949.41275 321.75 965.25 337.623 965.25 357.4285V500.5715A35.535500000000006 35.535500000000006 0 0 1 929.5 536.25C909.58725 536.25 893.75 520.377 893.75 500.5715zM143 500.7145V71.2855C143 51.6945 158.98025 35.75 178.64275 35.75H715.10725A35.535500000000006 35.535500000000006 0 0 1 750.75 71.2855V500.7145A35.64275 35.64275 0 0 1 715.10725 536.25H178.64275A35.535500000000006 35.535500000000006 0 0 1 143 500.7145z" />
    <glyph glyph-name="parallax-gallery"
      unicode="&#xE039;"
      horiz-adv-x="1001" d=" M35.75 929.5V464.75C35.75 444.9087500000001 51.6945 429 71.60725 429H393.14275A35.75 35.75 0 0 1 429 464.75V929.5C429 949.34125 413.0555 965.25 393.14275 965.25H71.60725A35.75 35.75 0 0 1 35.75 929.5zM0 929.5A71.5 71.5 0 0 0 71.60725 1001H393.14275C432.68225 1001 464.75 969.1825 464.75 929.5V464.75A71.5 71.5 0 0 0 393.14275 393.25H71.60725A71.4285 71.4285 0 0 0 0 464.75V929.5zM536.25 929.2855C536.25 968.8965 568.2105 1001 607.85725 1001H929.39275C968.93225 1001 1001 969.28975 1001 929.2855V822.4645A71.57149999999999 71.57149999999999 0 0 0 929.39275 750.75H607.85725A71.39275 71.39275 0 0 0 536.25 822.4645V929.2855zM536.25 607.893C536.25 647.3610000000001 568.2105 679.25 607.85725 679.25H929.39275C968.93225 679.25 1001 647.32525 1001 607.92875V107.0712500000001A71.39275 71.39275 0 0 0 929.39275 35.75H607.85725A71.46425 71.46425 0 0 0 536.25 107.0712500000001V607.92875zM0 250.35725C0 289.75375 31.9605 321.75 71.60725 321.75H393.14275C432.68225 321.75 464.75 290.0397500000001 464.75 250.3215V107.1784999999999A71.4285 71.4285 0 0 0 393.14275 35.75H71.60725A71.32124999999999 71.32124999999999 0 0 0 0 107.1785V250.3215000000002zM572 929.2855V822.4645A35.64275 35.64275 0 0 1 607.85725 786.5H929.39275C949.234 786.5 965.25 802.55175 965.25 822.4645V929.2855A35.64275 35.64275 0 0 1 929.39275 965.25H607.85725C588.016 965.25 572 949.19825 572 929.2855zM572 607.893V107.07125C572 87.4445 588.016 71.4999999999999 607.85725 71.4999999999999H929.39275A35.64275 35.64275 0 0 1 965.25 107.0712500000001V607.92875A35.71425 35.71425 0 0 1 929.39275 643.5H607.85725A35.64275 35.64275 0 0 1 572 607.92875zM35.75 250.35725V107.2142500000001C35.75 87.3730000000001 51.65875 71.53575 71.60725 71.53575H393.14275A35.67850000000001 35.67850000000001 0 0 1 429 107.1785V250.3215000000002A35.57125 35.57125 0 0 1 393.14275 286H71.60725A35.67850000000001 35.67850000000001 0 0 1 35.75 250.3215zM572 572H643.5V536.25H572V572zM679.25 572H750.75V536.25H679.25V572zM786.5 572H858V536.25H786.5V572zM893.75 572H965.25V536.25H893.75V572zM35.75 572V536.25H107.25V572H35.75zM143 572V536.25H214.5V572H143zM250.25 572V536.25H321.75V572H250.25zM357.5 572V536.25H429V572H357.5z" />
    <glyph glyph-name="pause"
      unicode="&#xE03A;"
      horiz-adv-x="1001" d=" M214.5 893.75H393.25A35.75 35.75 0 0 0 429 858V143A35.75 35.75 0 0 0 393.25 107.25H214.5A35.75 35.75 0 0 0 178.75 143V858A35.75 35.75 0 0 0 214.5 893.75zM607.75 893.75H786.5A35.75 35.75 0 0 0 822.25 858V143A35.75 35.75 0 0 0 786.5 107.25H607.75A35.75 35.75 0 0 0 572 143V858A35.75 35.75 0 0 0 607.75 893.75z" />
    <glyph glyph-name="phone"
      unicode="&#xE03B;"
      horiz-adv-x="1001" d=" M250.25 893.893V107.1070000000001C250.25 67.925 282.4965000000001 35.75 322.1075 35.75H678.8925C718.861 35.75 750.75 67.5675 750.75 107.107V893.893A71.82175 71.82175 0 0 1 678.8924999999999 965.25H322.1075C282.10325 965.25 250.25 933.4325 250.25 893.893zM214.5 893.893A107.107 107.107 0 0 0 322.1075 1001H678.8925C738.3805 1001 786.5 952.7375 786.5 893.893V107.1070000000001A107.107 107.107 0 0 0 678.8924999999999 0H322.1075A107.57175000000001 107.57175000000001 0 0 0 214.5 107.107V893.893z M679.25 822.50025V822.25V822.4645zM679.1785 250.25L679.25 822.28575L321.8215 822.25L321.75 250.21425L679.1785 250.25zM286 822.50025C286 842.09125 302.302 858 321.8215 858H679.1785A35.67850000000001 35.67850000000001 0 0 0 715 822.50025V249.9997500000001C715 230.4087500000001 698.698 214.5000000000001 679.1785 214.5000000000001H321.8215A35.67850000000001 35.67850000000001 0 0 0 286 249.99975V822.50025z M482.625 911.625C482.625 891.8808201935491 498.6308201935491 875.875 518.375 875.875C538.1191798064508 875.875 554.125 891.8808201935491 554.125 911.625C554.125 931.369179806451 538.1191798064508 947.375 518.375 947.375C498.6308201935491 947.375 482.625 931.369179806451 482.625 911.625z M518.375 71.5A53.625 53.625 0 1 0 518.375 178.75A53.625 53.625 0 0 0 518.375 71.5zM518.375 107.25A17.875 17.875 0 1 1 518.375 143A17.875 17.875 0 0 1 518.375 107.25z" />
    <glyph glyph-name="play-next"
      unicode="&#xE03C;"
      horiz-adv-x="1001" d=" M429 391.0335L57.80775 120.8349999999999C25.9545 97.5975 0 110.64625 0 150.0070000000001V834.7625C0 874.0875 26.34775 887.99425 58.88025 865.75775L429 612.755V834.7625C429 874.0875 455.34775 887.99425 487.88025 865.75775L956.20525 545.6165000000001C988.38025 523.6302499999999 989.2025000000002 486.52175 957.27775 463.28425L486.8077500000001 120.7992499999999C454.9545000000001 97.63325 429 110.64625 429 150.007V391.0335z" />
    <glyph glyph-name="play-previous"
      unicode="&#xE03D;"
      horiz-adv-x="1001" d=" M572 391.0335V150.007C572 110.64625 546.0455000000001 97.63325 514.19225 120.8349999999999L43.72225 463.3199999999999C11.7975 486.5575 12.61975 523.6302499999999 44.79475 545.6165L513.11975 865.75775C545.65225 887.99425 572 874.0875 572 834.7625V612.755L942.11975 865.75775C974.65225 887.99425 1001 874.0875 1001 834.7625V150.007C1001 110.64625 975.0455 97.63325 943.19225 120.8349999999999L572 391.0335z" />
    <glyph glyph-name="play"
      unicode="&#xE03E;"
      horiz-adv-x="1001" d=" M237.98775 960.49525C205.2765 982.87475 178.75 968.825 178.75 929.8575V71.1424999999999C178.75 31.8174999999999 204.8475 18.9474999999999 236.77225 42.1849999999999L829.9005000000001 473.9377499999999C861.96825 497.2825 861.4320000000001 534.3195000000001 828.6850000000002 556.699L237.98775 960.49525z" />
    <glyph glyph-name="popup"
      unicode="&#xE03F;"
      horiz-adv-x="1001" d=" M804.375 829.65025L842.27 867.54525A17.875 17.875 0 0 0 867.5809999999999 842.30575L829.6859999999999 804.375L867.5809999999999 766.48A17.875 17.875 0 0 0 842.3057499999999 741.169L804.375 779.064L766.48 741.169A17.875 17.875 0 0 0 741.1690000000001 766.44425L779.0640000000001 804.375L741.1690000000001 842.27A17.875 17.875 0 0 0 766.4442500000001 867.5809999999999L804.3750000000001 829.6859999999999zM644.4652500000001 786.5H107.25A35.75 35.75 0 0 1 71.5 750.75V107.25A35.75 35.75 0 0 1 107.25 71.5H750.75A35.75 35.75 0 0 1 786.5 107.25V644.46525A160.9465 160.9465 0 0 0 644.4652500000001 786.5zM822.25 644.46525V107.25A71.5 71.5 0 0 0 750.75 35.75H107.25A71.5 71.5 0 0 0 35.75 107.25V750.75A71.5 71.5 0 0 0 107.25 822.25H644.4652500000001A160.875 160.875 0 1 0 822.25 644.46525zM196.625 607.75H661.375A17.875 17.875 0 1 0 661.375 572H196.625A17.875 17.875 0 1 0 196.625 607.75zM268.125 536.25H589.875A17.875 17.875 0 1 0 589.875 500.5H268.125A17.875 17.875 0 1 0 268.125 536.25zM232.375 464.75H625.625A17.875 17.875 0 1 0 625.625 429H232.375A17.875 17.875 0 1 0 232.375 464.75zM804.375 679.25A125.12500000000003 125.12500000000003 0 1 1 804.375 929.5A125.12500000000003 125.12500000000003 0 0 1 804.375 679.25z" />
    <glyph glyph-name="position-body"
      unicode="&#xE040;"
      horiz-adv-x="1001" d=" M965.25 500.5V929.5A35.75 35.75 0 0 1 929.5 965.25H71.5A35.75 35.75 0 0 1 35.75 929.5V500.5H965.25zM965.25 178.75H35.75V71.5A35.75 35.75 0 0 1 71.5 35.75H929.5A35.75 35.75 0 0 1 965.25 71.5V178.75zM71.5 1001H929.5A71.5 71.5 0 0 0 1001 929.5V71.5A71.5 71.5 0 0 0 929.5 0H71.5A71.5 71.5 0 0 0 0 71.5V929.5A71.5 71.5 0 0 0 71.5 1001z" />
    <glyph glyph-name="position-footer"
      unicode="&#xE041;"
      horiz-adv-x="1001" d=" M965.25 178.75V929.5A35.75 35.75 0 0 1 929.5 965.25H71.5A35.75 35.75 0 0 1 35.75 929.5V178.75H965.25zM71.5 1001H929.5A71.5 71.5 0 0 0 1001 929.5V71.5A71.5 71.5 0 0 0 929.5 0H71.5A71.5 71.5 0 0 0 0 71.5V929.5A71.5 71.5 0 0 0 71.5 1001z" />
    <glyph glyph-name="position-header"
      unicode="&#xE042;"
      horiz-adv-x="1001" d=" M965.25 822.25H35.75V71.5A35.75 35.75 0 0 1 71.5 35.75H929.5A35.75 35.75 0 0 1 965.25 71.5V822.25zM71.5 1001H929.5A71.5 71.5 0 0 0 1001 929.5V71.5A71.5 71.5 0 0 0 929.5 0H71.5A71.5 71.5 0 0 0 0 71.5V929.5A71.5 71.5 0 0 0 71.5 1001z" />
    <glyph glyph-name="position-media"
      unicode="&#xE043;"
      horiz-adv-x="1001" d=" M965.25 858V929.5A35.75 35.75 0 0 1 929.5 965.25H71.5A35.75 35.75 0 0 1 35.75 929.5V858H965.25zM965.25 464.75H35.75V71.5A35.75 35.75 0 0 1 71.5 35.75H929.5A35.75 35.75 0 0 1 965.25 71.5V464.75zM71.5 1001H929.5A71.5 71.5 0 0 0 1001 929.5V71.5A71.5 71.5 0 0 0 929.5 0H71.5A71.5 71.5 0 0 0 0 71.5V929.5A71.5 71.5 0 0 0 71.5 1001z" />
    <glyph glyph-name="post-calendar"
      unicode="&#xE044;"
      horiz-adv-x="1001" d=" M214.5 822.25V786.5H143A35.75 35.75 0 0 1 107.25 750.75V143A35.75 35.75 0 0 1 143 107.25H858A35.75 35.75 0 0 1 893.75 143V750.75A35.75 35.75 0 0 1 858 786.5H786.5V822.25H858A71.5 71.5 0 0 0 929.5 750.75V143A71.5 71.5 0 0 0 858 71.5H143A71.5 71.5 0 0 0 71.5 143V750.75A71.5 71.5 0 0 0 143 822.25H214.5zM321.75 822.25H679.25V786.5H321.75V822.25zM268.125 893.75A17.875 17.875 0 0 0 286 875.875V732.875A17.875 17.875 0 0 0 250.25 732.875V875.875A17.875 17.875 0 0 0 268.125 893.75zM732.875 893.75A17.875 17.875 0 0 0 750.75 875.875V732.875A17.875 17.875 0 1 0 715 732.875V875.875A17.875 17.875 0 0 0 732.875 893.75zM250.25 464.75A71.5 71.5 0 1 0 250.25 607.75A71.5 71.5 0 0 0 250.25 464.75zM250.25 500.5A35.75 35.75 0 1 1 250.25 572A35.75 35.75 0 0 1 250.25 500.5zM250.25 250.25A71.5 71.5 0 1 0 250.25 393.25A71.5 71.5 0 0 0 250.25 250.25zM250.25 286A35.75 35.75 0 1 1 250.25 357.5A35.75 35.75 0 0 1 250.25 286zM500.5 464.75A71.5 71.5 0 1 0 500.5 607.75A71.5 71.5 0 0 0 500.5 464.75zM500.5 500.5A35.75 35.75 0 1 1 500.5 572A35.75 35.75 0 0 1 500.5 500.5zM500.5 250.25A71.5 71.5 0 1 0 500.5 393.25A71.5 71.5 0 0 0 500.5 250.25zM500.5 286A35.75 35.75 0 1 1 500.5 357.5A35.75 35.75 0 0 1 500.5 286zM750.75 464.75A71.5 71.5 0 1 0 750.75 607.75A71.5 71.5 0 0 0 750.75 464.75zM750.75 500.5A35.75 35.75 0 1 1 750.75 572A35.75 35.75 0 0 1 750.75 500.5zM750.75 250.25A71.5 71.5 0 1 0 750.75 393.25A71.5 71.5 0 0 0 750.75 250.25zM750.75 286A35.75 35.75 0 1 1 750.75 357.5A35.75 35.75 0 0 1 750.75 286z" />
    <glyph glyph-name="posts"
      unicode="&#xE045;"
      horiz-adv-x="1001" d=" M858 542.399V599.06275L723.68725 464.75H780.351L858 542.399zM858 491.8127500000001L830.93725 464.7500000000001H858V491.8127500000001zM779.88625 429H685.8637500000001A17.9465 17.9465 0 0 0 672.63625 429H578.6137500000001A17.9465 17.9465 0 0 0 565.3862500000001 429H471.3637500000001A17.9465 17.9465 0 0 0 458.1362500000001 429H364.1137500000001A17.9465 17.9465 0 0 0 350.8862500000002 429H256.8637500000001A17.9465 17.9465 0 0 0 243.6362500000001 429H149.6137500000001A17.875 17.875 0 0 0 143.0000000000001 427.713V143A35.75 35.75 0 0 1 178.7500000000001 107.25H822.2500000000001A35.75 35.75 0 0 1 858.0000000000001 143V429H793.1137500000001A17.9465 17.9465 0 0 0 779.88625 429zM893.75 542.86375A17.9465 17.9465 0 0 0 893.75 529.63625V143A71.5 71.5 0 0 0 822.25 71.5H178.75A71.5 71.5 0 0 0 107.25 143V858A71.5 71.5 0 0 0 178.75 929.5H822.25A71.5 71.5 0 0 0 893.75 858V757.36375A17.9465 17.9465 0 0 0 893.75 744.13625V650.11375A17.9465 17.9465 0 0 0 893.75 636.88625V542.8637500000001zM858 649.649V706.31275L616.43725 464.75H673.101L858 649.649zM851.851 750.75H787.7869999999999A17.8035 17.8035 0 0 0 782.53175 738.0944999999999L509.18725 464.75H565.851L851.851 750.75zM744.601 750.75H680.5369999999999A17.8035 17.8035 0 0 0 675.28175 738.0944999999999L401.93725 464.75H458.601L744.601 750.75zM637.351 750.75H573.2869999999999A17.8035 17.8035 0 0 0 568.0317499999999 738.0944999999999L294.68725 464.75H351.351L637.351 750.75zM530.101 750.75H466.037A17.8035 17.8035 0 0 0 460.78175 738.0944999999999L187.43725 464.75H244.101L530.101 750.75zM422.851 750.75H358.787A17.8035 17.8035 0 0 0 353.53175 738.0944999999999L155.6555 540.21825A17.8035 17.8035 0 0 0 143 534.963V470.899L422.851 750.75zM251.537 750.75A17.8035 17.8035 0 0 0 246.28175 738.0944999999999L155.6555 647.46825A17.8035 17.8035 0 0 0 143 642.213V578.149L315.601 750.75H251.537zM208.351 750.75H143V685.399L208.351 750.75zM858 786.5V858A35.75 35.75 0 0 1 822.25 893.75H178.75A35.75 35.75 0 0 1 143 858V786.5H858zM232.375 357.5H768.625A17.875 17.875 0 1 0 768.625 321.75H232.375A17.875 17.875 0 1 0 232.375 357.5zM232.375 858H482.625A17.875 17.875 0 1 0 482.625 822.25H232.375A17.875 17.875 0 0 0 232.375 858zM232.375 286H589.875A17.875 17.875 0 1 0 589.875 250.25H232.375A17.875 17.875 0 1 0 232.375 286zM232.375 214.5H697.125A17.875 17.875 0 1 0 697.125 178.75H232.375A17.875 17.875 0 1 0 232.375 214.5z" />
    <glyph glyph-name="radio"
      unicode="&#xE046;"
      horiz-adv-x="1001" d=" M482.625 429A89.375 89.375 0 1 1 482.625 607.75A89.375 89.375 0 0 1 482.625 429zM500.5 0C224.081 0 0 224.081 0 500.5S224.081 1001 500.5 1001S1001 776.919 1001 500.5S776.919 0 500.5 0z" />
    <glyph glyph-name="random"
      unicode="&#xE047;"
      horiz-adv-x="1001" d=" M107.25 858H893.75A71.5 71.5 0 0 0 965.25 786.5V214.5A71.5 71.5 0 0 0 893.75 143H107.25A71.5 71.5 0 0 0 35.75 214.5V786.5A71.5 71.5 0 0 0 107.25 858zM107.25 822.25A35.75 35.75 0 0 1 71.5 786.5V214.5A35.75 35.75 0 0 1 107.25 178.75H893.75A35.75 35.75 0 0 1 929.5 214.5V786.5A35.75 35.75 0 0 1 893.75 822.25H107.25zM306.84225 635.8495H214.5A17.875 17.875 0 1 0 214.5 671.5995H322.35775L409.08725 578.6495A17.875 17.875 0 0 0 382.954 554.30375L306.8065000000001 635.8137499999999zM743.34975 329.4005H592.8422499999999L505.2547499999999 423.24425A17.875 17.875 0 0 0 531.3879999999999 447.62575L608.35775 365.1505H743.34975L712.60475 395.93125A17.875 17.875 0 1 0 737.84425 421.2065L811.77525 347.2755L737.84425 273.3445A17.875 17.875 0 0 0 712.569 298.6554999999999L743.314 329.4004999999999zM743.34975 671.5994999999999L712.60475 702.3444999999999A17.875 17.875 0 1 0 737.84425 727.6554999999998L811.77525 653.7244999999999L737.84425 579.7935A17.875 17.875 0 0 0 712.569 605.0687499999999L743.314 635.8137499999999H608.35775L322.35775 329.4362499999999H214.5A17.875 17.875 0 1 0 214.5 365.1862499999999H306.84225L592.8422499999999 671.5637499999998H743.34975z" />
    <glyph glyph-name="resize-horizontal-filled"
      unicode="&#xE048;"
      horiz-adv-x="1001" d=" M636.636 775.775L989.8102499999998 521.3779999999999C1005.96925 509.7234999999999 1005.75475 491.24075 989.8102499999998 479.72925L636.636 225.3680000000001C620.51275 213.7492500000001 607.75 220.54175 607.75 240.2757500000002V760.903C607.75 780.78 620.6914999999999 787.2865 636.636 775.775zM364.3640000000001 775.775C380.3085 787.2865 393.25 780.78 393.25 760.903V240.27575C393.25 220.54175 380.48725 213.74925 364.3640000000001 225.368L11.18975 479.765C-4.75475 491.2764999999999 -4.96925 509.795 11.18975 521.41375L364.3640000000001 775.775z" />
    <glyph glyph-name="resize-horizontal"
      unicode="&#xE049;"
      horiz-adv-x="1001" d=" M643.5 274.38125L957.528 500.5L643.5 726.7975V274.38125zM636.636 775.775L989.8102499999998 521.3779999999999C1005.96925 509.7234999999999 1005.75475 491.24075 989.8102499999998 479.72925L636.636 225.3680000000001C620.51275 213.7492500000001 607.75 220.54175 607.75 240.2757500000002V760.903C607.75 780.78 620.6914999999999 787.2865 636.636 775.775zM364.3640000000001 775.775C380.3085 787.2865 393.25 780.78 393.25 760.903V240.27575C393.25 220.54175 380.48725 213.74925 364.3640000000001 225.368L11.18975 479.765C-4.75475 491.2764999999999 -4.96925 509.795 11.18975 521.41375L364.3640000000001 775.775zM43.472 500.5357500000001L357.5 274.38125V726.7975L43.472 500.5z" />
    <glyph glyph-name="rewind"
      unicode="&#xE04A;"
      horiz-adv-x="1001" d=" M536.25 856.5342499999999C756.47 838.3375 929.5 653.8675 929.5 429C929.5 192.08475 737.41525 0 500.5 0S71.5 192.08475 71.5 429A71.5 71.5 0 1 0 214.5 429A286 286 0 1 1 536.25 712.7835V643.8575000000001C536.25 604.28225 511.94 592.8779999999999 481.94575 618.5822499999999L340.34 739.9535000000001C310.48875 765.5505 310.34575 807.34225 340.34 833.0465L481.9815 954.4535C511.797 980.0505 536.25 968.86075 536.25 929.17825V856.5699999999999z" />
    <glyph glyph-name="scroll-indicator"
      unicode="&#xE04B;"
      horiz-adv-x="1001" d=" M643.5 464.75H589.875A17.875 17.875 0 1 0 589.875 500.5H643.5V625.625A160.875 160.875 0 1 0 965.25 625.625V339.625A160.875 160.875 0 1 0 643.5 339.625V464.75zM804.375 750.75A125.12500000000003 125.12500000000003 0 0 1 679.25 625.625V339.625A125.12500000000003 125.12500000000003 0 0 1 929.5 339.625V625.625A125.12500000000003 125.12500000000003 0 0 1 804.375 750.75zM804.375 679.25A17.875 17.875 0 0 0 822.25 661.375V554.125A17.875 17.875 0 1 0 786.5 554.125V661.375A17.875 17.875 0 0 0 804.375 679.25zM53.625 893.75H89.375A17.875 17.875 0 0 0 89.375 858H53.625A17.875 17.875 0 0 0 53.625 893.75zM160.875 893.75H196.625A17.875 17.875 0 0 0 196.625 858H160.875A17.875 17.875 0 0 0 160.875 893.75zM268.125 893.75H303.875A17.875 17.875 0 0 0 303.875 858H268.125A17.875 17.875 0 0 0 268.125 893.75zM375.375 893.75H411.125A17.875 17.875 0 1 0 411.125 858H375.375A17.875 17.875 0 1 0 375.375 893.75zM482.625 893.75H518.375A17.875 17.875 0 1 0 518.375 858H482.625A17.875 17.875 0 1 0 482.625 893.75zM589.875 893.75H625.625A17.875 17.875 0 1 0 625.625 858H589.875A17.875 17.875 0 1 0 589.875 893.75zM697.125 893.75H732.875A17.875 17.875 0 1 0 732.875 858H697.125A17.875 17.875 0 1 0 697.125 893.75zM804.375 893.75H840.125A17.875 17.875 0 1 0 840.125 858H804.375A17.875 17.875 0 1 0 804.375 893.75zM321.75 359.46625L288.7170000000001 326.3974999999999A16.731 16.731 0 1 0 265.0505 350.02825L339.625 424.60275L414.1995 350.02825A16.731 16.731 0 0 0 390.56875 326.3974999999999L357.5 359.46625V198.198A17.875 17.875 0 0 0 321.75 198.198V359.4305000000001zM321.75 752.71625L288.7170000000001 719.6475A16.731 16.731 0 1 0 265.0505 743.2782500000001L339.625 817.85275L414.1995 743.2782500000001A16.731 16.731 0 0 0 390.56875 719.6475L357.5 752.71625V591.4480000000001A17.875 17.875 0 0 0 321.75 591.4480000000001V752.6805zM911.625 893.75H947.375A17.875 17.875 0 1 0 947.375 858H911.625A17.875 17.875 0 1 0 911.625 893.75zM53.625 500.5H89.375A17.875 17.875 0 1 0 89.375 464.75H53.625A17.875 17.875 0 1 0 53.625 500.5zM160.875 500.5H196.625A17.875 17.875 0 1 0 196.625 464.75H160.875A17.875 17.875 0 1 0 160.875 500.5zM268.125 500.5H303.875A17.875 17.875 0 1 0 303.875 464.75H268.125A17.875 17.875 0 1 0 268.125 500.5zM375.375 500.5H411.125A17.875 17.875 0 1 0 411.125 464.75H375.375A17.875 17.875 0 1 0 375.375 500.5zM482.625 500.5H518.375A17.875 17.875 0 1 0 518.375 464.75H482.625A17.875 17.875 0 1 0 482.625 500.5zM53.625 107.25H89.375A17.875 17.875 0 1 0 89.375 71.5H53.625A17.875 17.875 0 1 0 53.625 107.25zM160.875 107.25H196.625A17.875 17.875 0 1 0 196.625 71.5H160.875A17.875 17.875 0 1 0 160.875 107.25zM268.125 107.25H303.875A17.875 17.875 0 1 0 303.875 71.5H268.125A17.875 17.875 0 1 0 268.125 107.25zM375.375 107.25H411.125A17.875 17.875 0 1 0 411.125 71.5H375.375A17.875 17.875 0 1 0 375.375 107.25zM482.625 107.25H518.375A17.875 17.875 0 1 0 518.375 71.5H482.625A17.875 17.875 0 1 0 482.625 107.25zM589.875 107.25H625.625A17.875 17.875 0 1 0 625.625 71.5H589.875A17.875 17.875 0 1 0 589.875 107.25zM697.125 107.25H732.875A17.875 17.875 0 1 0 732.875 71.5H697.125A17.875 17.875 0 1 0 697.125 107.25zM804.375 107.25H840.125A17.875 17.875 0 1 0 840.125 71.5H804.375A17.875 17.875 0 1 0 804.375 107.25zM911.625 107.25H947.375A17.875 17.875 0 1 0 947.375 71.5H911.625A17.875 17.875 0 1 0 911.625 107.25z" />
    <glyph glyph-name="search-form"
      unicode="&#xE04C;"
      horiz-adv-x="1001" d=" M312.0975000000001 286.7865L48.4055 23.0944999999999A17.875 17.875 0 0 0 23.0945 48.4054999999999L286.7865 312.0617499999999A409.65924999999993 409.65924999999993 0 0 0 178.75 589.875C178.75 816.92325 362.82675 1001 589.875 1001S1001 816.92325 1001 589.875S816.9232499999999 178.75 589.875 178.75A409.65924999999993 409.65924999999993 0 0 0 312.0975000000001 286.7865zM589.875 214.5C797.18925 214.5 965.25 382.56075 965.25 589.875S797.18925 965.25 589.875 965.25S214.5 797.18925 214.5 589.875S382.5607500000001 214.5 589.875 214.5zM321.75 607.75A17.875 17.875 0 1 0 321.75 643.5H839.01675A17.875 17.875 0 1 0 839.01675 607.75H321.75zM429 500.5A17.875 17.875 0 1 0 429 536.25H739.34575A17.875 17.875 0 0 0 739.34575 500.5H429zM536.25 393.25A17.875 17.875 0 1 0 536.25 429H639.7104999999999A17.875 17.875 0 1 0 639.7104999999999 393.25H536.25z" />
    <glyph glyph-name="search-thick"
      unicode="&#xE04D;"
      horiz-adv-x="1001" d=" M589.875 321.75A268.125 268.125 0 1 1 589.875 858A268.125 268.125 0 0 1 589.875 321.75zM354.1395 253.0027499999999L122.0505 20.9494999999999A71.5 71.5 0 0 0 20.9495 122.0505L253.00275 354.1395A409.23024999999996 409.23024999999996 0 0 0 178.75 589.875C178.75 816.92325 362.82675 1001 589.875 1001S1001 816.92325 1001 589.875S816.9232499999999 178.75 589.875 178.75C502.18025 178.75 420.88475 206.206 354.1395 253.0027499999999z" />
    <glyph glyph-name="search"
      unicode="&#xE04E;"
      horiz-adv-x="1001" d=" M589.875 250.25A339.625 339.625 0 1 1 589.875 929.5A339.625 339.625 0 0 1 589.875 250.25zM325.5395 274.9890000000001L61.02525 10.4390000000001A35.75 35.75 0 1 0 10.47475 61.02525L274.9890000000001 325.5395000000001C214.929 397.0395000000001 178.75 489.203 178.75 589.875C178.75 816.92325 362.82675 1001 589.875 1001S1001 816.92325 1001 589.875S816.9232499999999 178.75 589.875 178.75A409.4805 409.4805 0 0 0 325.5395 274.9890000000001z" />
    <glyph glyph-name="shape-round"
      unicode="&#xE04F;"
      horiz-adv-x="1001" d=" M411.125 786.5H589.875A303.875 303.875 0 1 0 589.875 178.75H411.125A303.875 303.875 0 1 0 411.125 786.5z" />
    <glyph glyph-name="shape-skewed"
      unicode="&#xE050;"
      horiz-adv-x="1001" d=" M214.5 786.5H893.75L786.5 178.75H107.25z" />
    <glyph glyph-name="shape-square"
      unicode="&#xE051;"
      horiz-adv-x="1001" d=" M107.25 786.5H893.75V178.75H107.25z" />
    <glyph glyph-name="slide-menu"
      unicode="&#xE052;"
      horiz-adv-x="1001" d=" M879.9505 192.29925A17.875 17.875 0 0 0 874.9455 176.56925L824.43075 126.01875A17.875 17.875 0 1 0 799.1555 151.294L840.125 192.3349999999999L799.1555 233.3045A17.875 17.875 0 1 0 824.43075 258.57975L874.98125 208.0292499999999A17.875 17.875 0 0 0 879.9505 192.2992499999999zM154.726 764.29925L195.73125 723.2940000000001A17.875 17.875 0 1 0 170.456 698.01875L119.9055 748.605A17.875 17.875 0 0 0 114.9005 764.335A17.875 17.875 0 0 0 119.9055 780.02925L170.456 830.57975A17.875 17.875 0 0 0 195.73125 805.3045L154.726 764.335zM929.5 357.5V607.75H71.5V357.5H929.5zM929.5 321.75H71.5V142.6425000000001C71.5 103.5677499999999 103.675 71.5 143.286 71.5H857.714A71.39275 71.39275 0 0 1 929.5 142.6424999999999V321.75zM929.5 643.5V822.6075C929.5 861.6822500000001 897.325 893.75 857.714 893.75H143.286A71.39275 71.39275 0 0 1 71.5 822.6075V643.5H929.5zM35.75 822.6075A107.14274999999999 107.14274999999999 0 0 0 143.286 929.5H857.714A107.35725 107.35725 0 0 0 965.25 822.6075V142.6425000000001A107.14274999999999 107.14274999999999 0 0 0 857.714 35.75H143.286A107.35725 107.35725 0 0 0 35.75 142.6424999999999V822.6075z" />
    <glyph glyph-name="slider-gallery"
      unicode="&#xE053;"
      horiz-adv-x="1001" d=" M464.75 178.4640000000001V178.6070000000001V178.4640000000001zM35.75 178.4640000000001C35.75 178.9287499999999 464.49975 178.75 464.49975 178.75C464.75 178.75 464.75 822.5360000000001 464.75 822.5360000000001C464.75 822.07125 36.00025 822.25 36.00025 822.25C35.75 822.25 35.75 178.4640000000001 35.75 178.4640000000001zM0 822.5360000000001C0 842.127 16.0875 858 36.00025 858H464.49975C484.4125 858 500.5 841.73375 500.5 822.5360000000001V178.4640000000001C500.5 158.8730000000001 484.4125 143 464.49975 143H36.00025A36.000249999999994 36.000249999999994 0 0 0 0 178.4640000000001V822.5360000000001zM536.25 822.5717500000001C536.25 842.127 552.37325 858 571.6425 858H715.3575C734.877 858 750.7499999999999 841.87675 750.7499999999999 822.6075000000001V678.8925000000002C750.7499999999999 659.373 734.6267499999999 643.5 715.3575 643.5H571.6424999999999A35.607 35.607 0 0 0 536.2499999999999 678.8925000000002V822.6075zM572 679.25H715V822.25H572V679.25zM536.25 572.3575000000001C536.25 591.877 552.37325 607.75 571.6425 607.75H715.3575C734.877 607.75 750.7499999999999 591.6267499999999 750.7499999999999 572.3575000000001V428.6425000000001C750.7499999999999 409.1230000000001 734.6267499999999 393.2500000000001 715.3575 393.2500000000001H571.6424999999999A35.607 35.607 0 0 0 536.2499999999999 428.6425000000001V572.3575000000001zM572 572V429H715V572H572zM536.25 322.1075C536.25 341.627 552.37325 357.4999999999999 571.6425 357.4999999999999H715.3575C734.877 357.4999999999999 750.7499999999999 341.3767499999999 750.7499999999999 322.1075V178.3924999999999C750.7499999999999 158.8729999999999 734.6267499999999 143 715.3575 143H571.6424999999999A35.607 35.607 0 0 0 536.2499999999999 178.3924999999999V322.1075zM572 321.7499999999999V178.7499999999999H715V321.7499999999999H572zM786.5 822.6074999999998C786.5 842.1269999999998 802.62325 857.9999999999999 821.8924999999999 857.9999999999999H965.6075C985.127 857.9999999999999 1000.9999999999998 841.8767499999999 1000.9999999999998 822.6074999999998V678.8924999999999C1000.9999999999998 659.3729999999998 984.87675 643.4999999999999 965.6075 643.4999999999999H821.8924999999999A35.607 35.607 0 0 0 786.5 678.8924999999999V822.6075zM822.25 679.25H965.25V822.25H822.25V679.25zM786.5 572.3575000000001C786.5 591.877 802.62325 607.75 821.8924999999999 607.75H965.6075C985.127 607.75 1000.9999999999998 591.6267499999999 1000.9999999999998 572.3575000000001V428.6425000000001C1000.9999999999998 409.1230000000001 984.87675 393.2500000000001 965.6075 393.2500000000001H821.8924999999999A35.607 35.607 0 0 0 786.5 428.6425000000001V572.3575000000001zM822.25 429H965.25V572H822.25V429zM786.5 322.1075C786.5 341.627 802.62325 357.4999999999999 821.8924999999999 357.4999999999999H965.6075C985.127 357.4999999999999 1000.9999999999998 341.3767499999999 1000.9999999999998 322.1075V178.3924999999999C1000.9999999999998 158.8729999999999 984.87675 143 965.6075 143H821.8924999999999A35.607 35.607 0 0 0 786.5 178.3924999999999V322.1075zM822.25 178.75H965.25V321.75H822.25V178.75zM328.5782500000001 440.583L412.0545 500.7145C415.844 503.46725 415.80825 507.82875 412.0545 510.54575L328.5425 570.6415C324.71725 573.39425 321.71425 571.7855 321.71425 567.1379999999999V444.0865C321.71425 439.40325 324.78875 437.866 328.5425 440.583zM168.4897500000001 440.583C172.2435000000001 437.866 175.2822500000001 439.40325 175.2822500000001 444.0865V567.138C175.2822500000001 571.7855000000001 172.2792500000001 573.39425 168.4897500000001 570.6415000000001L85.0135 510.5457500000001C81.25975 507.8287500000001 81.18825 503.4672500000001 85.0135 500.7145L168.4897500000001 440.5830000000001z" />
    <glyph glyph-name="sort-down"
      unicode="&#xE054;"
      horiz-adv-x="1001" d=" M220.1485 686.114C208.67275 702.0585 215.215 715 235.05625 715H755.6835000000001C775.38175 715 782.21 702.23725 770.5555 686.114L516.23 332.9397500000001C504.7185000000001 316.9952500000001 486.2 316.78075 474.5812500000001 332.9397500000001L220.1485 686.114z" />
    <glyph glyph-name="sort-up-down"
      unicode="&#xE055;"
      horiz-adv-x="1001" d=" M225.2965 636.7075L479.6935 989.9175C491.348 1006.0765 509.83075 1005.862 521.3422499999999 989.9175L775.7035 636.74325C787.3222499999999 620.62 780.52975 607.85725 760.79575 607.85725H240.1685C220.2915 607.85725 213.785 620.7987499999999 225.2965 636.74325zM225.2965 364.4355000000001C213.785 380.3800000000001 220.2915 393.3215000000002 240.1685 393.3215000000002H760.79575C780.5297499999999 393.3215000000002 787.3222499999999 380.5587500000002 775.7035 364.4355000000001L521.34225 11.2612500000001C509.83075 -4.6832499999999 491.31225 -4.8977499999999 479.6935 11.2612500000001L225.2965 364.4355000000001z" />
    <glyph glyph-name="sort-up"
      unicode="&#xE056;"
      horiz-adv-x="1001" d=" M220.1485 349.8137500000001C208.67275 333.8335000000001 215.17925 320.892 235.05625 320.892H755.6835000000001C775.38175 320.892 782.21 333.6547499999999 770.5555 349.8137500000001L516.23 702.95225C504.7185 718.9325 486.2 719.1112499999999 474.58125 702.95225L220.1485 349.8137500000001z" />
    <glyph glyph-name="sticky-elements"
      unicode="&#xE057;"
      horiz-adv-x="1001" d=" M429 643.5H0V679.25H429V929.82175C429 969.14675 460.99625 1001 500.2855 1001H929.7145C969.07525 1001 1001 968.825 1001 929.82175V71.1424999999999C1001 31.8174999999999 969.00375 -0.03575 929.7145 -0.03575H500.2855C460.92475 0 429 32.175 429 71.1782499999999V643.5zM965.25 679.25V929.82175A35.67850000000001 35.67850000000001 0 0 1 929.7145 965.25H500.2855A35.535500000000006 35.535500000000006 0 0 1 464.75 929.82175V679.25H965.25zM965.25 643.5H464.75V71.1782499999999C464.75 51.80175 480.766 35.75 500.2855 35.75H929.7145A35.535500000000006 35.535500000000006 0 0 1 965.25 71.1782499999999V643.5zM71.5 572H357.5V536.25H71.5V572zM71.5 464.75H357.5V429H71.5V464.75zM71.5 357.5H357.5V321.75H71.5V357.5zM71.5 250.25H357.5V214.5H71.5V250.25z" />
    </font>
</defs>
</svg>
